Blink-182 – Dude Ranch




Artist: Blink-182
Year: 1997
Genre: Punk
Notes: Discogs
Add. Notes:
Encoder: FLAC
Bitrate: ~1000 kBit/s (44.1 kHz/16 Bit/s)
Bin/Cue incl.: Yes
Size: 344,82 MB
Password: “slam” (without ” “)


http://www.share-online.biz/dl/Y3JCMWRP2GX

https://rapidgator.net/file/3dadf72fb48fada5f57d0e1ae5a5c7a5

https://uploadbyte.com/re8hiz3pr9in

https://uploadever.com/ird0sxex4kvd

https://justupload.io/ao59oduwjfm0

Tracklist:

1 - Pathetic - 2:27
2 - Voyeur - 2:43
3 - Dammit - 2:45
4 - Boring - 1:41
5 - Dick Lips - 2:57
6 - Waggy - 3:16
7 - Enthused - 2:48
8 - Untitled - 2:46
9 - Apple Shampoo - 2:52
10 - Emo - 2:50
11 - Josie - 3:20
12 - A New Hope - 3:45
13 - Degenerate - 2:28
14 - Lemmings - 2:38
15 - I'm Sorry - 4:27

EAC-Log, CUE-Sheed & NFO:

Click to open spoiler
Exact Audio Copy V1.0 beta 3 from 29. August 2011

EAC extraction logfile from 13. October 2011, 20:43

Blink-182 / Dude Ranch

Used drive : hp CDDVDW TS-L633R Adapter: 0 ID: 0

Read mode : Secure
Utilize accurate stream : Yes
Defeat audio cache : Yes
Make use of C2 pointers : No

Read offset correction : 6
Overread into Lead-In and Lead-Out : No
Fill up missing offset samples with silence : Yes
Delete leading and trailing silent blocks : No
Null samples used in CRC calculations : Yes
Used interface : Native Win32 interface for Win NT & 2000
Gap handling : Appended to previous track

Used output format : User Defined Encoder
Selected bitrate : 1024 kBit/s
Quality : High
Add ID3 tag : No
Command line compressor : D:\program files\Exact Audio Copy\Flac\flac.exe
Additional command line options : -V -8 -T “Genre=%genre%” -T “Artist=%artist%” -T “Title=%title%” -T “Album=%albumtitle%” -T “Date=%year%” -T “Tracknumber=%tracknr%” %source%

TOC of the extracted CD

Track | Start | Length | Start sector | End sector
———————————————————
1 | 0:00.00 | 2:28.02 | 0 | 11101
2 | 2:28.02 | 2:43.63 | 11102 | 23389
3 | 5:11.65 | 2:45.27 | 23390 | 35791
4 | 7:57.17 | 1:41.50 | 35792 | 43416
5 | 9:38.67 | 2:57.05 | 43417 | 56696
6 | 12:35.72 | 3:16.50 | 56697 | 71446
7 | 15:52.47 | 2:48.10 | 71447 | 84056
8 | 18:40.57 | 2:46.48 | 84057 | 96554
9 | 21:27.30 | 2:52.10 | 96555 | 109464
10 | 24:19.40 | 2:50.42 | 109465 | 122256
11 | 27:10.07 | 3:19.63 | 122257 | 137244
12 | 30:29.70 | 3:45.12 | 137245 | 154131
13 | 34:15.07 | 2:28.23 | 154132 | 165254
14 | 36:43.30 | 2:38.12 | 165255 | 177116
15 | 39:21.42 | 5:37.67 | 177117 | 202458

Track 1

Filename D:\releases\01 – Pathetic.wav

Pre-gap length 0:00:02.00

Peak level 100.0 %
Extraction speed 1.4 X
Track quality 99.9 %
Test CRC 0FC57CD6
Copy CRC 0FC57CD6
Accurately ripped (confidence 2) [6D20599C] (AR v1)
Copy OK

Track 2

Filename D:\releases\02 – Voyeur.wav

Peak level 100.0 %
Extraction speed 1.9 X
Track quality 100.0 %
Test CRC FB0B512D
Copy CRC FB0B512D
Accurately ripped (confidence 2) [23BAF171] (AR v1)
Copy OK

Track 3

Filename D:\releases\03 – Dammit.wav

Peak level 100.0 %
Extraction speed 1.7 X
Track quality 99.9 %
Test CRC EB828144
Copy CRC EB828144
Accurately ripped (confidence 2) [AC1A93E1] (AR v1)
Copy OK

Track 4

Filename D:\releases\04 – Boring.wav

Peak level 100.0 %
Extraction speed 1.9 X
Track quality 100.0 %
Test CRC D526EA5F
Copy CRC D526EA5F
Accurately ripped (confidence 2) [EF0D61C6] (AR v1)
Copy OK

Track 5

Filename D:\releases\05 – Dick Lips.wav

Peak level 100.0 %
Extraction speed 2.2 X
Track quality 100.0 %
Test CRC 4C259230
Copy CRC 4C259230
Accurately ripped (confidence 2) [41D88BF5] (AR v1)
Copy OK

Track 6

Filename D:\releases\06 – Waggy.wav

Peak level 100.0 %
Extraction speed 2.3 X
Track quality 100.0 %
Test CRC AA887A75
Copy CRC AA887A75
Accurately ripped (confidence 2) [A55A7B6E] (AR v1)
Copy OK

Track 7

Filename D:\releases\07 – Enthused.wav

Peak level 100.0 %
Extraction speed 2.4 X
Track quality 100.0 %
Test CRC E6C2DF68
Copy CRC E6C2DF68
Accurately ripped (confidence 2) [194EAD87] (AR v1)
Copy OK

Track 8

Filename D:\releases\08 – Untitled.wav

Peak level 100.0 %
Extraction speed 2.1 X
Track quality 99.9 %
Test CRC 05843722
Copy CRC 05843722
Accurately ripped (confidence 2) [043F9CF1] (AR v1)
Copy OK

Track 9

Filename D:\releases\09 – Apple Shampoo.wav

Peak level 100.0 %
Extraction speed 2.6 X
Track quality 100.0 %
Test CRC 870110B0
Copy CRC 870110B0
Accurately ripped (confidence 2) [E72EE6EB] (AR v1)
Copy OK

Track 10

Filename D:\releases\10 – Emo.wav

Peak level 100.0 %
Extraction speed 2.7 X
Track quality 100.0 %
Test CRC 6ED51946
Copy CRC 6ED51946
Accurately ripped (confidence 2) [79BD6885] (AR v1)
Copy OK

Track 11

Filename D:\releases\11 – Josie.wav

Peak level 100.0 %
Extraction speed 2.4 X
Track quality 99.9 %
Test CRC 00165273
Copy CRC 00165273
Accurately ripped (confidence 2) [67E7E89C] (AR v1)
Copy OK

Track 12

Filename D:\releases\12 – A New Hope.wav

Peak level 100.0 %
Extraction speed 3.0 X
Track quality 100.0 %
Test CRC 8CB174B3
Copy CRC 8CB174B3
Accurately ripped (confidence 2) [9F828A85] (AR v1)
Copy OK

Track 13

Filename D:\releases\13 – Degenerate.wav

Peak level 100.0 %
Extraction speed 2.8 X
Track quality 100.0 %
Test CRC 4F78BDF8
Copy CRC 4F78BDF8
Accurately ripped (confidence 2) [85C1E13F] (AR v1)
Copy OK

Track 14

Filename D:\releases\14 – Lemmings.wav

Peak level 100.0 %
Extraction speed 2.9 X
Track quality 100.0 %
Test CRC B99E8D47
Copy CRC B99E8D47
Accurately ripped (confidence 2) [6D14F814] (AR v1)
Copy OK

Track 15

Filename D:\releases\15 – I’m Sorry.wav

Peak level 100.0 %
Extraction speed 3.4 X
Track quality 100.0 %
Test CRC 60E36402
Copy CRC 60E36402
Accurately ripped (confidence 2) [9AEFB186] (AR v1)
Copy OK

All tracks accurately ripped

No errors occurred

End of status report

==== Log checksum 182ED1A89B4D14979A8E80359EBD7BAAA5D584F03B2C479E1EF8D8BCA993B3A9 ====

REM GENRE Pop-Punk
REM DATE 1997
REM DISCID B90A8B0F
REM COMMENT “ExactAudioCopy v1.0b3”
CATALOG 0008811162429
PERFORMER “Blink-182”
TITLE “Dude Ranch”
FILE “01 – Pathetic.wav” WAVE
TRACK 01 AUDIO
TITLE “Pathetic”
PERFORMER “Blink-182”
ISRC USCR29752440
INDEX 01 00:00:00
FILE “02 – Voyeur.wav” WAVE
TRACK 02 AUDIO
TITLE “Voyeur”
PERFORMER “Blink-182”
ISRC USCR29752441
INDEX 01 00:00:00
FILE “03 – Dammit.wav” WAVE
TRACK 03 AUDIO
TITLE “Dammit”
PERFORMER “Blink-182”
ISRC USCR29752442
INDEX 01 00:00:00
FILE “04 – Boring.wav” WAVE
TRACK 04 AUDIO
TITLE “Boring”
PERFORMER “Blink-182”
ISRC USCR29752450
INDEX 01 00:00:00
FILE “05 – Dick Lips.wav” WAVE
TRACK 05 AUDIO
TITLE “Dick Lips”
PERFORMER “Blink-182”
ISRC USCR29752444
INDEX 01 00:00:00
FILE “06 – Waggy.wav” WAVE
TRACK 06 AUDIO
TITLE “Waggy”
PERFORMER “Blink-182”
ISRC USCR29752445
INDEX 01 00:00:00
FILE “07 – Enthused.wav” WAVE
TRACK 07 AUDIO
TITLE “Enthused”
PERFORMER “Blink-182”
ISRC USCR29752446
INDEX 01 00:00:00
FILE “08 – Untitled.wav” WAVE
TRACK 08 AUDIO
TITLE “Untitled”
PERFORMER “Blink-182”
ISRC USCR29752447
INDEX 01 00:00:00
FILE “09 – Apple Shampoo.wav” WAVE
TRACK 09 AUDIO
TITLE “Apple Shampoo”
PERFORMER “Blink-182”
ISRC USCR29752447
INDEX 01 00:00:00
FILE “10 – Emo.wav” WAVE
TRACK 10 AUDIO
TITLE “Emo”
PERFORMER “Blink-182”
ISRC USCR29752449
INDEX 01 00:00:00
FILE “11 – Josie.wav” WAVE
TRACK 11 AUDIO
TITLE “Josie”
PERFORMER “Blink-182”
ISRC USCR29752443
INDEX 01 00:00:00
FILE “12 – A New Hope.wav” WAVE
TRACK 12 AUDIO
TITLE “A New Hope”
PERFORMER “Blink-182”
ISRC USCR29752451
INDEX 01 00:00:00
FILE “13 – Degenerate.wav” WAVE
TRACK 13 AUDIO
TITLE “Degenerate”
PERFORMER “Blink-182”
ISRC USCR29752454
INDEX 01 00:00:00
FILE “14 – Lemmings.wav” WAVE
TRACK 14 AUDIO
TITLE “Lemmings”
PERFORMER “Blink-182”
ISRC USCR29752452
INDEX 01 00:00:00
FILE “15 – I’m Sorry.wav” WAVE
TRACK 15 AUDIO
TITLE “I’m Sorry”
PERFORMER “Blink-182”
ISRC USCR29752453
INDEX 01 00:00:00

Leave a Reply

Your email address will not be published. Required fields are marked *

This site uses Akismet to reduce spam. Learn how your comment data is processed.