Blink-182 – Cheshire Cat




Artist: Blink-182
Year: 1994
Genre: Punk
Notes: Discogs
Add. Notes:
Encoder: FLAC
Bitrate: ~800 kBit/s (44.1 kHz/16 Bit/s)
Bin/Cue incl.: Yes
Size: 302,59 MB
Password: “slam” (without ” “)


http://www.share-online.biz/dl/AKSCKRRPTCNX
https://rapidgator.net/file/31d52d869b698120fee96b2084bc340c
https://uploadbyte.com/ddqlampi09gp
https://uploadever.com/gdfpf0gsd4xp

Tracklist:

1 - Carousel - 3:14
2 - M+M's - 2:39
3 - Fentoozler - 2:04
4 - Touchdown Boy - 3:10
5 - Strings - 2:25
6 - Peggy Sue - 2:38
7 - Sometimes - 1:08
8 - Does My Breath Smell? - 2:38
9 - Cacophony - 3:05
10 - TV - 1:41
11 - Toast And Bananas - 2:42
12 - Wasting Time - 2:49
13 - Romeo And Rebecca - 2:34
14 - Ben Wah Balls - 3:55
15 - Just About Done - 2:16
16 - Depends - 2:48

EAC-Log, CUE-Sheed & NFO:

Click to open spoiler
Exact Audio Copy V0.99 prebeta 4 from 23. January 2008

EAC extraction logfile from 26. March 2009, 10:57

Blink-182 / Cheshire Cat

Used drive : ASUS DRW-1608P2S Adapter: 0 ID: 0

Read mode : Secure
Utilize accurate stream : Yes
Defeat audio cache : Yes
Make use of C2 pointers : No

Read offset correction : 48
Overread into Lead-In and Lead-Out : No
Fill up missing offset samples with silence : Yes
Delete leading and trailing silent blocks : No
Null samples used in CRC calculations : Yes
Used interface : Installed external ASPI interface
Gap handling : Appended to previous track

Used output format : User Defined Encoder
Selected bitrate : 320 kBit/s
Quality : High
Add ID3 tag : No
Command line compressor : C:\Program Files\Exact Audio Copy\FLAC\FLAC.EXE
Additional command line options : -8 -V -T “ARTIST=%a” -T “TITLE=%t” -T “ALBUM=%g” -T “DATE=%y” -T “TRACKNUMBER=%n” -T “GENRE=%m” -T “COMMENT=EAC FLAC -8” %s

TOC of the extracted CD

Track | Start | Length | Start sector | End sector
———————————————————
1 | 0:00.00 | 3:14.72 | 0 | 14621
2 | 3:14.72 | 2:39.58 | 14622 | 26604
3 | 5:54.55 | 2:04.62 | 26605 | 35966
4 | 7:59.42 | 3:10.38 | 35967 | 50254
5 | 11:10.05 | 2:25.57 | 50255 | 61186
6 | 13:35.62 | 2:38.33 | 61187 | 73069
7 | 16:14.20 | 1:08.70 | 73070 | 78239
8 | 17:23.15 | 2:38.07 | 78240 | 90096
9 | 20:01.22 | 3:05.53 | 90097 | 104024
10 | 23:07.00 | 1:41.67 | 104025 | 111666
11 | 24:48.67 | 2:42.45 | 111667 | 123861
12 | 27:31.37 | 2:49.28 | 123862 | 136564
13 | 30:20.65 | 2:34.02 | 136565 | 148116
14 | 32:54.67 | 3:55.50 | 148117 | 165791
15 | 36:50.42 | 2:16.30 | 165792 | 176021
16 | 39:06.72 | 2:48.58 | 176022 | 188679

Track 1

Filename F:\01 – Carousel.wav

Pre-gap length 0:00:02.00

Peak level 92.9 %
Track quality 100.0 %
Test CRC 9BE20751
Copy CRC 9BE20751
Accurately ripped (confidence 6) [4504B010]
Copy OK

Track 2

Filename F:\02 – M+M’s.wav

Pre-gap length 0:00:03.69

Peak level 92.9 %
Track quality 100.0 %
Test CRC CB3CB8C4
Copy CRC CB3CB8C4
Accurately ripped (confidence 3) [ADC502B6]
Copy OK

Track 3

Filename F:\03 – Fentoozler.wav

Pre-gap length 0:00:03.50

Peak level 92.9 %
Track quality 100.0 %
Test CRC EA2E88BF
Copy CRC EA2E88BF
Accurately ripped (confidence 6) [17DB881D]
Copy OK

Track 4

Filename F:\04 – Touchdown Boy.wav

Pre-gap length 0:00:02.20

Peak level 92.8 %
Track quality 100.0 %
Test CRC 2CBAEF9E
Copy CRC 2CBAEF9E
Accurately ripped (confidence 3) [87BCD865]
Copy OK

Track 5

Filename F:\05 – Strings.wav

Pre-gap length 0:00:03.04

Peak level 92.8 %
Track quality 99.9 %
Test CRC 225FBABB
Copy CRC 225FBABB
Accurately ripped (confidence 6) [C4055795]
Copy OK

Track 6

Filename F:\06 – Peggy Sue.wav

Pre-gap length 0:00:01.82

Peak level 92.9 %
Track quality 100.0 %
Test CRC 9F331D12
Copy CRC 9F331D12
Accurately ripped (confidence 3) [2A7C8E09]
Copy OK

Track 7

Filename F:\07 – Sometimes.wav

Pre-gap length 0:00:02.57

Peak level 92.8 %
Track quality 100.0 %
Test CRC 241B9E7E
Copy CRC 241B9E7E
Accurately ripped (confidence 3) [AFDE1F3E]
Copy OK

Track 8

Filename F:\08 – Does My Breath Smell .wav

Pre-gap length 0:00:03.37

Peak level 92.9 %
Track quality 100.0 %
Test CRC 1107BD10
Copy CRC 1107BD10
Accurately ripped (confidence 3) [94FEF556]
Copy OK

Track 9

Filename F:\09 – Cacophony.wav

Pre-gap length 0:00:03.53

Peak level 92.8 %
Track quality 100.0 %
Test CRC 86D21367
Copy CRC 86D21367
Accurately ripped (confidence 3) [CC0139C6]
Copy OK

Track 10

Filename F:\10 – TV.wav

Pre-gap length 0:00:04.00

Peak level 92.8 %
Track quality 100.0 %
Test CRC 9B64CBD8
Copy CRC 9B64CBD8
Accurately ripped (confidence 3) [F7F02A55]
Copy OK

Track 11

Filename F:\11 – Toast And Bananas.wav

Pre-gap length 0:00:01.76

Peak level 92.8 %
Track quality 100.0 %
Test CRC DCA891BC
Copy CRC DCA891BC
Accurately ripped (confidence 3) [C5E2E5E3]
Copy OK

Track 12

Filename F:\12 – Wasting Time.wav

Pre-gap length 0:00:03.80

Peak level 92.8 %
Track quality 100.0 %
Test CRC A367B29E
Copy CRC A367B29E
Accurately ripped (confidence 6) [476681C6]
Copy OK

Track 13

Filename F:\13 – Romeo And Rebecca.wav

Pre-gap length 0:00:05.40

Peak level 92.9 %
Track quality 100.0 %
Test CRC 5FF4BE44
Copy CRC 5FF4BE44
Accurately ripped (confidence 3) [11FCEC2D]
Copy OK

Track 14

Filename F:\14 – Ben Wah Balls.wav

Pre-gap length 0:00:03.80

Peak level 92.8 %
Track quality 100.0 %
Test CRC DE414F2C
Copy CRC DE414F2C
Accurately ripped (confidence 3) [3BFD7DF0]
Copy OK

Track 15

Filename F:\15 – Just About Done.wav

Peak level 92.8 %
Track quality 100.0 %
Test CRC 10E23824
Copy CRC 10E23824
Accurately ripped (confidence 3) [BE08ABCD]
Copy OK

Track 16

Filename F:\16 – Depends.wav

Pre-gap length 0:00:03.60

Peak level 92.8 %
Track quality 100.0 %
Test CRC 16638036
Copy CRC 16638036
Accurately ripped (confidence 3) [935409E4]
Copy OK

All tracks accurately ripped

No errors occurred

End of status report

REM GENRE “Punk Rock”
REM DATE 1994
REM DISCID E009D310
REM COMMENT “ExactAudioCopy v0.99pb4”
PERFORMER “Blink-182”
TITLE “Cheshire Cat”
FILE “01 – Carousel.wav” WAVE
TRACK 01 AUDIO
TITLE “Carousel”
PERFORMER “Blink-182”
INDEX 01 00:00:00
TRACK 02 AUDIO
TITLE “M+M’s”
PERFORMER “Blink-182”
INDEX 00 03:11:20
FILE “02 – M+M’s.wav” WAVE
INDEX 01 00:00:00
TRACK 03 AUDIO
TITLE “Fentoozler”
PERFORMER “Blink-182”
INDEX 00 02:36:20
FILE “03 – Fentoozler.wav” WAVE
INDEX 01 00:00:00
TRACK 04 AUDIO
TITLE “Touchdown Boy”
PERFORMER “Blink-182”
INDEX 00 02:02:47
FILE “04 – Touchdown Boy.wav” WAVE
INDEX 01 00:00:00
TRACK 05 AUDIO
TITLE “Strings”
PERFORMER “Blink-182”
INDEX 00 03:07:35
FILE “05 – Strings.wav” WAVE
INDEX 01 00:00:00
TRACK 06 AUDIO
TITLE “Peggy Sue”
PERFORMER “Blink-182”
INDEX 00 02:23:70
FILE “06 – Peggy Sue.wav” WAVE
INDEX 01 00:00:00
TRACK 07 AUDIO
TITLE “Sometimes”
PERFORMER “Blink-182”
INDEX 00 02:35:65
FILE “07 – Sometimes.wav” WAVE
INDEX 01 00:00:00
TRACK 08 AUDIO
TITLE “Does My Breath Smell?”
PERFORMER “Blink-182”
INDEX 00 01:05:42
FILE “08 – Does My Breath Smell .wav” WAVE
INDEX 01 00:00:00
TRACK 09 AUDIO
TITLE “Cacophony”
PERFORMER “Blink-182”
INDEX 00 02:34:42
FILE “09 – Cacophony.wav” WAVE
INDEX 01 00:00:00
TRACK 10 AUDIO
TITLE “TV”
PERFORMER “Blink-182”
INDEX 00 03:01:53
FILE “10 – TV.wav” WAVE
INDEX 01 00:00:00
TRACK 11 AUDIO
TITLE “Toast And Bananas”
PERFORMER “Blink-182”
INDEX 00 01:40:10
FILE “11 – Toast And Bananas.wav” WAVE
INDEX 01 00:00:00
TRACK 12 AUDIO
TITLE “Wasting Time”
PERFORMER “Blink-182”
INDEX 00 02:38:60
FILE “12 – Wasting Time.wav” WAVE
INDEX 01 00:00:00
TRACK 13 AUDIO
TITLE “Romeo And Rebecca”
PERFORMER “Blink-182”
INDEX 00 02:43:73
FILE “13 – Romeo And Rebecca.wav” WAVE
INDEX 01 00:00:00
TRACK 14 AUDIO
TITLE “Ben Wah Balls”
PERFORMER “Blink-182”
INDEX 00 02:30:17
FILE “14 – Ben Wah Balls.wav” WAVE
INDEX 01 00:00:00
FILE “15 – Just About Done.wav” WAVE
TRACK 15 AUDIO
TITLE “Just About Done”
PERFORMER “Blink-182”
INDEX 01 00:00:00
TRACK 16 AUDIO
TITLE “Depends”
PERFORMER “Blink-182”
INDEX 00 02:12:60
FILE “16 – Depends.wav” WAVE
INDEX 01 00:00:00

Leave a Reply

Your email address will not be published. Required fields are marked *

This site uses Akismet to reduce spam. Learn how your comment data is processed.