Blink-182 – Cheshire Cat (Japanese Edition)




Artist: Blink-182
Year: 1996
Genre: Punk
Notes: Discogs
Add. Notes: Japanese Edition
Cover incl.: Yes
Encoder: FLAC
Bitrate: ~900 kBit/s (44.1 kHz/16 Bit/s)
Log & Cue incl.: Yes
Size: 325,59 MB
Password: “slam” (without ” “)


All Downloads/Hosters are compatible

Download 1
Turbobit.net
Rapidgator.net
UploadEver.com
JustUpload.io
HexUpload.net
Download 2
Turbobit.net
Rapidgator.net
UploadEver.com
JustUpload.io
HexUpload.net
Download 3
Turbobit.net
Rapidgator.net
UploadEver.com
JustUpload.io
HexUpload.net

Tracklist:

1 - Carousel - 3:15
2 - M+M's - 2:39
3 - Fentoozler - 2:04
4 - Touchdown Boy - 3:10
5 - Strings - 2:25
6 - Peggy Sue - 2:38
7 - Sometimes - 1:08
8 - Does My Breath Smell? - 2:38
9 - Cacophony - 3:05
10 - T.V. - 1:41
11 - Toast And Bananas - 2:42
12 - Wasting Time - 2:49
13 - Romeo And Rebecca - 2:34
14 - Ben Wah Balls - 3:55
15 - Just About Done - 2:16
16 - Depends - 2:48
17 - Zulu - 2:06
Japan Bonus Track:
18 - Lemmings - 2:45

EAC-Log, CUE-Sheed & NFO:

Click to open spoiler
X Lossless Decoder version 20110417 (131.0)

XLD extraction logfile from 2011-04-22 02:58:09 -0700

blink-182 / Cheshire Cat (Japanese Edition)

Used drive : PIONEER DVD-RW DVR-112D (revision 1.21)

Ripper mode : CDParanoia III 10.2
Disable audio cache : OK for the drive with a cache less than 2750KiB
Make use of C2 pointers : NO
Read offset correction : 48
Max retry count : 100
Gap status : Analyzed, Appended

TOC of the extracted CD
Track | Start | Length | Start sector | End sector
———————————————————
1 | 00:00:00 | 03:15:45 | 0 | 14669
2 | 03:15:45 | 02:39:58 | 14670 | 26652
3 | 05:55:28 | 02:04:65 | 26653 | 36017
4 | 08:00:18 | 03:10:37 | 36018 | 50304
5 | 11:10:55 | 02:25:55 | 50305 | 61234
6 | 13:36:35 | 02:38:33 | 61235 | 73117
7 | 16:14:68 | 01:08:70 | 73118 | 78287
8 | 17:23:63 | 02:38:05 | 78288 | 90142
9 | 20:01:68 | 03:05:55 | 90143 | 104072
10 | 23:07:48 | 01:41:65 | 104073 | 111712
11 | 24:49:38 | 02:42:45 | 111713 | 123907
12 | 27:32:08 | 02:49:27 | 123908 | 136609
13 | 30:21:35 | 02:34:05 | 136610 | 148164
14 | 32:55:40 | 03:55:40 | 148165 | 165829
15 | 36:51:05 | 02:16:48 | 165830 | 176077
16 | 39:07:53 | 02:48:37 | 176078 | 188714
17 | 41:56:15 | 02:06:73 | 188715 | 198237
18 | 44:03:13 | 02:45:72 | 198238 | 210684

AccurateRip Summary
Disc not found in AccurateRip DB.

All Tracks
Album gain : -7.52 dB
Peak : 0.992371
Statistics
Read error : 0
Skipped (treated as error) : 0
Edge jitter error (maybe fixed) : 0
Atom jitter error (maybe fixed) : 1
Drift error (maybe fixed) : 0
Dropped bytes error (maybe fixed) : 0
Duplicated bytes error (maybe fixed) : 0

Track 01
Filename : /Users/daveyjones/Desktop/! NEW RIPS/01 Carousel.flac
Pre-gap length : 00:02:00

Track gain : -6.54 dB
Peak : 0.990967
CRC32 hash (test run) : 5DA180B3
CRC32 hash : 5DA180B3
CRC32 hash (skip zero) : 4AC24420
AccurateRip signature : 89A04AB3
->Track not present in AccurateRip database.
Statistics
Read error : 0
Skipped (treated as error) : 0
Edge jitter error (maybe fixed) : 0
Atom jitter error (maybe fixed) : 0
Drift error (maybe fixed) : 0
Dropped bytes error (maybe fixed) : 0
Duplicated bytes error (maybe fixed) : 0
Inconsistency in error sectors : 0

Track 02
Filename : /Users/daveyjones/Desktop/! NEW RIPS/02 M+M’s.flac
Pre-gap length : 00:03:37

Track gain : -7.12 dB
Peak : 0.991211
CRC32 hash (test run) : 34E964A8
CRC32 hash : 34E964A8
CRC32 hash (skip zero) : E5B99D36
AccurateRip signature : 51825CA0
->Track not present in AccurateRip database.
Statistics
Read error : 0
Skipped (treated as error) : 0
Edge jitter error (maybe fixed) : 0
Atom jitter error (maybe fixed) : 0
Drift error (maybe fixed) : 0
Dropped bytes error (maybe fixed) : 0
Duplicated bytes error (maybe fixed) : 0
Inconsistency in error sectors : 0

Track 03
Filename : /Users/daveyjones/Desktop/! NEW RIPS/03 Fentoozler.flac
Pre-gap length : 00:03:25

Track gain : -5.65 dB
Peak : 0.990906
CRC32 hash (test run) : 301B2C6B
CRC32 hash : 301B2C6B
CRC32 hash (skip zero) : 1ED99722
AccurateRip signature : 08A77F6C
->Track not present in AccurateRip database.
Statistics
Read error : 0
Skipped (treated as error) : 0
Edge jitter error (maybe fixed) : 0
Atom jitter error (maybe fixed) : 0
Drift error (maybe fixed) : 0
Dropped bytes error (maybe fixed) : 0
Duplicated bytes error (maybe fixed) : 0
Inconsistency in error sectors : 0

Track 04
Filename : /Users/daveyjones/Desktop/! NEW RIPS/04 Touchdown Boy.flac
Pre-gap length : 00:02:00

Track gain : -6.45 dB
Peak : 0.990204
CRC32 hash (test run) : BC9982E0
CRC32 hash : BC9982E0
CRC32 hash (skip zero) : 722F88DF
AccurateRip signature : 324B00BF
->Track not present in AccurateRip database.
Statistics
Read error : 0
Skipped (treated as error) : 0
Edge jitter error (maybe fixed) : 0
Atom jitter error (maybe fixed) : 0
Drift error (maybe fixed) : 0
Dropped bytes error (maybe fixed) : 0
Duplicated bytes error (maybe fixed) : 0
Inconsistency in error sectors : 0

Track 05
Filename : /Users/daveyjones/Desktop/! NEW RIPS/05 Strings.flac
Pre-gap length : 00:03:00

Track gain : -6.42 dB
Peak : 0.990814
CRC32 hash (test run) : A9C68CF4
CRC32 hash : A9C68CF4
CRC32 hash (skip zero) : 2AA43884
AccurateRip signature : 521021C1
->Track not present in AccurateRip database.
Statistics
Read error : 0
Skipped (treated as error) : 0
Edge jitter error (maybe fixed) : 0
Atom jitter error (maybe fixed) : 0
Drift error (maybe fixed) : 0
Dropped bytes error (maybe fixed) : 0
Duplicated bytes error (maybe fixed) : 0
Inconsistency in error sectors : 0

Track 06
Filename : /Users/daveyjones/Desktop/! NEW RIPS/06 Peggy Sue.flac
Pre-gap length : 00:01:37

Track gain : -8.02 dB
Peak : 0.991180
CRC32 hash (test run) : 53E6CB38
CRC32 hash : 53E6CB38
CRC32 hash (skip zero) : C0B02BA6
AccurateRip signature : 22BBB7AC
->Track not present in AccurateRip database.
Statistics
Read error : 0
Skipped (treated as error) : 0
Edge jitter error (maybe fixed) : 0
Atom jitter error (maybe fixed) : 0
Drift error (maybe fixed) : 0
Dropped bytes error (maybe fixed) : 0
Duplicated bytes error (maybe fixed) : 0
Inconsistency in error sectors : 0

Track 07
Filename : /Users/daveyjones/Desktop/! NEW RIPS/07 Sometimes.flac
Pre-gap length : 00:02:25

Track gain : -7.84 dB
Peak : 0.990479
CRC32 hash (test run) : EF0D4E95
CRC32 hash : EF0D4E95
CRC32 hash (skip zero) : F5A04E12
AccurateRip signature : 3A4A340C
->Track not present in AccurateRip database.
Statistics
Read error : 0
Skipped (treated as error) : 0
Edge jitter error (maybe fixed) : 0
Atom jitter error (maybe fixed) : 0
Drift error (maybe fixed) : 0
Dropped bytes error (maybe fixed) : 0
Duplicated bytes error (maybe fixed) : 0
Inconsistency in error sectors : 0

Track 08
Filename : /Users/daveyjones/Desktop/! NEW RIPS/08 Does My Breath Smell?.flac
Pre-gap length : 00:03:00

Track gain : -8.72 dB
Peak : 0.991119
CRC32 hash (test run) : 7D1F4737
CRC32 hash : 7D1F4737
CRC32 hash (skip zero) : 1F6253C7
AccurateRip signature : B697B764
->Track not present in AccurateRip database.
Statistics
Read error : 0
Skipped (treated as error) : 0
Edge jitter error (maybe fixed) : 0
Atom jitter error (maybe fixed) : 0
Drift error (maybe fixed) : 0
Dropped bytes error (maybe fixed) : 0
Duplicated bytes error (maybe fixed) : 0
Inconsistency in error sectors : 0

Track 09
Filename : /Users/daveyjones/Desktop/! NEW RIPS/09 Cacophony.flac
Pre-gap length : 00:03:25

Track gain : -7.81 dB
Peak : 0.990509
CRC32 hash (test run) : C20AB2E7
CRC32 hash : C20AB2E7
CRC32 hash (skip zero) : 5CAC50BD
AccurateRip signature : E3D1D0E4
->Track not present in AccurateRip database.
Statistics
Read error : 0
Skipped (treated as error) : 0
Edge jitter error (maybe fixed) : 0
Atom jitter error (maybe fixed) : 0
Drift error (maybe fixed) : 0
Dropped bytes error (maybe fixed) : 0
Duplicated bytes error (maybe fixed) : 0
Inconsistency in error sectors : 0

Track 10
Filename : /Users/daveyjones/Desktop/! NEW RIPS/10 TV.flac
Pre-gap length : 00:03:38

Track gain : -7.74 dB
Peak : 0.990326
CRC32 hash (test run) : 05D2F111
CRC32 hash : 05D2F111
CRC32 hash (skip zero) : 8ABBFB5F
AccurateRip signature : CD5C23DA
->Track not present in AccurateRip database.
Statistics
Read error : 0
Skipped (treated as error) : 0
Edge jitter error (maybe fixed) : 0
Atom jitter error (maybe fixed) : 0
Drift error (maybe fixed) : 0
Dropped bytes error (maybe fixed) : 0
Duplicated bytes error (maybe fixed) : 0
Inconsistency in error sectors : 0

Track 11
Filename : /Users/daveyjones/Desktop/! NEW RIPS/11 Toast and Bananas.flac
Pre-gap length : 00:01:25

Track gain : -6.36 dB
Peak : 0.990540
CRC32 hash (test run) : 8A555758
CRC32 hash : 8A555758
CRC32 hash (skip zero) : 4B2C4D22
AccurateRip signature : 178842E3
->Track not present in AccurateRip database.
Statistics
Read error : 0
Skipped (treated as error) : 0
Edge jitter error (maybe fixed) : 0
Atom jitter error (maybe fixed) : 0
Drift error (maybe fixed) : 0
Dropped bytes error (maybe fixed) : 0
Duplicated bytes error (maybe fixed) : 0
Inconsistency in error sectors : 0

Track 12
Filename : /Users/daveyjones/Desktop/! NEW RIPS/12 Wasting Time.flac
Pre-gap length : 00:04:00

Track gain : -8.32 dB
Peak : 0.990845
CRC32 hash (test run) : 852C751B
CRC32 hash : 852C751B
CRC32 hash (skip zero) : 8EA06041
AccurateRip signature : 901F3DF1
->Track not present in AccurateRip database.
Statistics
Read error : 0
Skipped (treated as error) : 0
Edge jitter error (maybe fixed) : 0
Atom jitter error (maybe fixed) : 0
Drift error (maybe fixed) : 0
Dropped bytes error (maybe fixed) : 0
Duplicated bytes error (maybe fixed) : 0
Inconsistency in error sectors : 0

Track 13
Filename : /Users/daveyjones/Desktop/! NEW RIPS/13 Romeo and Rebecca.flac
Pre-gap length : 00:05:00

Track gain : -5.89 dB
Peak : 0.991089
CRC32 hash (test run) : 55238483
CRC32 hash : 55238483
CRC32 hash (skip zero) : D7A0F07E
AccurateRip signature : CBB670EF
->Track not present in AccurateRip database.
Statistics
Read error : 0
Skipped (treated as error) : 0
Edge jitter error (maybe fixed) : 0
Atom jitter error (maybe fixed) : 0
Drift error (maybe fixed) : 0
Dropped bytes error (maybe fixed) : 0
Duplicated bytes error (maybe fixed) : 0
Inconsistency in error sectors : 0

Track 14
Filename : /Users/daveyjones/Desktop/! NEW RIPS/14 Ben Wah Balls.flac
Pre-gap length : 00:03:37

Track gain : -4.22 dB
Peak : 0.990143
CRC32 hash (test run) : 2AF48C9E
CRC32 hash : 2AF48C9E
CRC32 hash (skip zero) : 7CD32664
AccurateRip signature : 1CE1CC81
->Track not present in AccurateRip database.
Statistics
Read error : 0
Skipped (treated as error) : 0
Edge jitter error (maybe fixed) : 0
Atom jitter error (maybe fixed) : 0
Drift error (maybe fixed) : 0
Dropped bytes error (maybe fixed) : 0
Duplicated bytes error (maybe fixed) : 0
Inconsistency in error sectors : 0

Track 15
Filename : /Users/daveyjones/Desktop/! NEW RIPS/15 Just About Done.flac
Pre-gap length : 00:01:00

Track gain : -2.58 dB
Peak : 0.990143
CRC32 hash (test run) : 5DEB572B
CRC32 hash : 5DEB572B
CRC32 hash (skip zero) : AC4107B7
AccurateRip signature : 645F6271
->Track not present in AccurateRip database.
Statistics
Read error : 0
Skipped (treated as error) : 0
Edge jitter error (maybe fixed) : 0
Atom jitter error (maybe fixed) : 0
Drift error (maybe fixed) : 0
Dropped bytes error (maybe fixed) : 0
Duplicated bytes error (maybe fixed) : 0
Inconsistency in error sectors : 0

Track 16
Filename : /Users/daveyjones/Desktop/! NEW RIPS/16 Depends.flac
Pre-gap length : 00:03:38

Track gain : -6.17 dB
Peak : 0.990143
CRC32 hash (test run) : 07DB4FF7
CRC32 hash : 07DB4FF7
CRC32 hash (skip zero) : D7C257FE
AccurateRip signature : 55855FF7
->Track not present in AccurateRip database.
Statistics
Read error : 0
Skipped (treated as error) : 0
Edge jitter error (maybe fixed) : 0
Atom jitter error (maybe fixed) : 1
Drift error (maybe fixed) : 0
Dropped bytes error (maybe fixed) : 0
Duplicated bytes error (maybe fixed) : 0
Inconsistency in error sectors : 0

Track 17
Filename : /Users/daveyjones/Desktop/! NEW RIPS/17 Zulu [Bonus Track].flac

Track gain : -6.75 dB
Peak : 0.992371
CRC32 hash (test run) : C7066DFD
CRC32 hash : C7066DFD
CRC32 hash (skip zero) : 8CBF7ABF
AccurateRip signature : D862F55C
->Track not present in AccurateRip database.
Statistics
Read error : 0
Skipped (treated as error) : 0
Edge jitter error (maybe fixed) : 0
Atom jitter error (maybe fixed) : 0
Drift error (maybe fixed) : 0
Dropped bytes error (maybe fixed) : 0
Duplicated bytes error (maybe fixed) : 0
Inconsistency in error sectors : 0

Track 18
Filename : /Users/daveyjones/Desktop/! NEW RIPS/18 Lemmings (7″ Version) [Bonus Track].flac

Track gain : -6.91 dB
Peak : 0.992371
CRC32 hash (test run) : CC28DA37
CRC32 hash : CC28DA37
CRC32 hash (skip zero) : C7D1AEC4
AccurateRip signature : 7DFBB890
->Track not present in AccurateRip database.
Statistics
Read error : 0
Skipped (treated as error) : 0
Edge jitter error (maybe fixed) : 0
Atom jitter error (maybe fixed) : 0
Drift error (maybe fixed) : 0
Dropped bytes error (maybe fixed) : 0
Duplicated bytes error (maybe fixed) : 0
Inconsistency in error sectors : 0

No errors occurred

End of status report

TITLE “Cheshire Cat (Japanese Edition)”
PERFORMER “blink-182”
REM GENRE “Punk”
REM DATE “1996”
REM DISCID 0C0AF912
FILE “01 – Carousel.wav” WAVE
TRACK 01 AUDIO
TITLE “Carousel”
INDEX 01 00:00:00
TRACK 02 AUDIO
TITLE “M+M’s”
INDEX 00 03:12:08
FILE “02 – M+M’s.wav” WAVE
INDEX 01 00:00:00
TRACK 03 AUDIO
TITLE “Fentoozler”
INDEX 00 02:36:33
FILE “03 – Fentoozler.wav” WAVE
INDEX 01 00:00:00
TRACK 04 AUDIO
TITLE “Touchdown Boy”
INDEX 00 02:02:65
FILE “04 – Touchdown Boy.wav” WAVE
INDEX 01 00:00:00
TRACK 05 AUDIO
TITLE “Strings”
INDEX 00 03:07:37
FILE “05 – Strings.wav” WAVE
INDEX 01 00:00:00
TRACK 06 AUDIO
TITLE “Peggy Sue”
INDEX 00 02:24:18
FILE “06 – Peggy Sue.wav” WAVE
INDEX 01 00:00:00
TRACK 07 AUDIO
TITLE “Sometimes”
INDEX 00 02:36:08
FILE “07 – Sometimes.wav” WAVE
INDEX 01 00:00:00
TRACK 08 AUDIO
TITLE “Does My Breath Smell?”
INDEX 00 01:05:70
FILE “08 – Does My Breath Smell.wav” WAVE
INDEX 01 00:00:00
TRACK 09 AUDIO
TITLE “Cacophony”
INDEX 00 02:34:55
FILE “09 – Cacophony.wav” WAVE
INDEX 01 00:00:00
TRACK 10 AUDIO
TITLE “TV”
INDEX 00 03:02:17
FILE “10 – TV.wav” WAVE
INDEX 01 00:00:00
TRACK 11 AUDIO
TITLE “Toast and Bananas”
INDEX 00 01:40:40
FILE “11 – Toast and Bananas.wav” WAVE
INDEX 01 00:00:00
TRACK 12 AUDIO
TITLE “Wasting Time”
INDEX 00 02:38:45
FILE “12 – Wasting Time.wav” WAVE
INDEX 01 00:00:00
TRACK 13 AUDIO
TITLE “Romeo and Rebecca”
INDEX 00 02:44:27
FILE “13 – Romeo and Rebecca.wav” WAVE
INDEX 01 00:00:00
TRACK 14 AUDIO
TITLE “Ben Wah Balls”
INDEX 00 02:30:43
FILE “14 – Ben Wah Balls.wav” WAVE
INDEX 01 00:00:00
TRACK 15 AUDIO
TITLE “Just About Done”
INDEX 00 03:54:40
FILE “15 – Just About Done.wav” WAVE
INDEX 01 00:00:00
TRACK 16 AUDIO
TITLE “Depends”
INDEX 00 02:13:10
FILE “16 – Depends.wav” WAVE
INDEX 01 00:00:00
FILE “17 – Zulu (Bonus Track).wav” WAVE
TRACK 17 AUDIO
TITLE “Zulu (Bonus Track)”
INDEX 01 00:00:00
FILE “18 – Lemmings (7” Version) (Bonus Track).wav” WAVE
TRACK 18 AUDIO
TITLE “Lemmings (7″ Version) (Bonus Track)”
INDEX 01 00:00:00

Leave a Reply

Your email address will not be published. Required fields are marked *

This site uses Akismet to reduce spam. Learn how your comment data is processed.