Blink-182 – Buddha (Remastered)




Artist: Blink-182
Year: 1994/1998
Genre: Punk
Notes: Discogs
Add. Notes: Remastered
Encoder: FLAC
Bitrate: ~1000 kBit/s (44.1 kHz/16 Bit/s)
Bin/Cue incl.: Yes
Size: 238,57 MB
Password: “slam” (without ” “)


http://www.share-online.biz/dl/GR02LTRPBF99
https://rapidgator.net/file/b3aba9591e29782c35c648efb8f949da
https://uploadbyte.com/e3re322mykt2
https://justupload.io/f829gxh7q65c
https://uploadever.com/ltix3abhrgcz

Tracklist:

1 - Carousel - 2:40
2 - T.V. - 1:37
3 - Strings - 2:29
4 - Fentoozler - 2:03
5 - Time - 2:46
6 - Romeo & Rebecca - 2:31
7 - 21 Days - 4:02
8 - Sometimes - 1:04
9 - Point Of View - 1:11
10 - My Pet Sally - 1:36
11 - Reebok Commercial - 2:36
12 - Toast & Bananas - 2:26
13 - The Girl Next Door - 2:32
14 - Don't - 2:27

EAC-Log, CUE-Sheed & NFO:

Click to open spoiler
Exact Audio Copy V0.99 prebeta 4 from 23. January 2008

EAC extraction logfile from 20. April 2009, 14:23

Blink-182 / Buddha

Used drive : ASUS DRW-1608P2S Adapter: 0 ID: 0

Read mode : Secure
Utilize accurate stream : Yes
Defeat audio cache : Yes
Make use of C2 pointers : No

Read offset correction : 48
Overread into Lead-In and Lead-Out : No
Fill up missing offset samples with silence : Yes
Delete leading and trailing silent blocks : No
Null samples used in CRC calculations : Yes
Used interface : Installed external ASPI interface
Gap handling : Appended to previous track

Used output format : User Defined Encoder
Selected bitrate : 320 kBit/s
Quality : High
Add ID3 tag : No
Command line compressor : C:\Program Files\Exact Audio Copy\FLAC\FLAC.EXE
Additional command line options : -8 -V -T “ARTIST=%a” -T “TITLE=%t” -T “ALBUM=%g” -T “DATE=%y” -T “TRACKNUMBER=%n” -T “GENRE=%m” -T “COMMENT=EAC FLAC -8” %s

TOC of the extracted CD

Track | Start | Length | Start sector | End sector
———————————————————
1 | 0:00.00 | 2:40.00 | 0 | 11999
2 | 2:40.00 | 1:37.22 | 12000 | 19296
3 | 4:17.22 | 2:28.60 | 19297 | 30456
4 | 6:46.07 | 2:03.35 | 30457 | 39716
5 | 8:49.42 | 2:46.13 | 39717 | 52179
6 | 11:35.55 | 2:31.42 | 52180 | 63546
7 | 14:07.22 | 4:02.18 | 63547 | 81714
8 | 18:09.40 | 1:04.42 | 81715 | 86556
9 | 19:14.07 | 1:11.53 | 86557 | 91934
10 | 20:25.60 | 1:36.45 | 91935 | 99179
11 | 22:02.30 | 2:35.70 | 99180 | 110874
12 | 24:38.25 | 2:26.55 | 110875 | 121879
13 | 27:05.05 | 2:31.72 | 121880 | 133276
14 | 29:37.02 | 2:24.68 | 133277 | 144144

Track 1

Filename F:\01 – Carousel.wav

Pre-gap length 0:00:02.00

Peak level 100.0 %
Track quality 100.0 %
Test CRC 99F7DB91
Copy CRC 99F7DB91
Accurately ripped (confidence 7) [6DB25A68]
Copy OK

Track 2

Filename F:\02 – T.V..wav

Peak level 100.0 %
Track quality 99.8 %
Test CRC 6074A676
Copy CRC 6074A676
Accurately ripped (confidence 7) [DC965302]
Copy OK

Track 3

Filename F:\03 – Strings.wav

Peak level 100.0 %
Track quality 100.0 %
Test CRC 271EE821
Copy CRC 271EE821
Accurately ripped (confidence 6) [C6EBD945]
Copy OK

Track 4

Filename F:\04 – Fentoozler.wav

Peak level 100.0 %
Track quality 100.0 %
Test CRC E1368DFD
Copy CRC E1368DFD
Accurately ripped (confidence 6) [33372BE3]
Copy OK

Track 5

Filename F:\05 – Time.wav

Peak level 100.0 %
Track quality 100.0 %
Test CRC C7409C2D
Copy CRC C7409C2D
Accurately ripped (confidence 7) [81896BCF]
Copy OK

Track 6

Filename F:\06 – Romeo & Rebecca.wav

Peak level 100.0 %
Track quality 100.0 %
Test CRC CFBB2612
Copy CRC CFBB2612
Accurately ripped (confidence 6) [59901E68]
Copy OK

Track 7

Filename F:\07 – 21 Days.wav

Peak level 100.0 %
Track quality 100.0 %
Test CRC F4EF397E
Copy CRC F4EF397E
Accurately ripped (confidence 6) [E3996E06]
Copy OK

Track 8

Filename F:\08 – Sometimes.wav

Peak level 100.0 %
Track quality 100.0 %
Test CRC A3FE94A6
Copy CRC A3FE94A6
Accurately ripped (confidence 7) [27F30276]
Copy OK

Track 9

Filename F:\09 – Point of View.wav

Peak level 100.0 %
Track quality 99.8 %
Test CRC 3D2CDC33
Copy CRC 3D2CDC33
Accurately ripped (confidence 8) [516EF146]
Copy OK

Track 10

Filename F:\10 – My Pet Sally.wav

Peak level 100.0 %
Track quality 100.0 %
Test CRC 9BDFD1E7
Copy CRC 9BDFD1E7
Accurately ripped (confidence 7) [D66A3F93]
Copy OK

Track 11

Filename F:\11 – Reebok Commercial.wav

Peak level 100.0 %
Track quality 100.0 %
Test CRC F6CF80FF
Copy CRC F6CF80FF
Accurately ripped (confidence 7) [1925610E]
Copy OK

Track 12

Filename F:\12 – Toast & Bananas.wav

Peak level 100.0 %
Track quality 100.0 %
Test CRC B4CB789C
Copy CRC B4CB789C
Accurately ripped (confidence 6) [3C3C60DE]
Copy OK

Track 13

Filename F:\13 – The Girl Next Door.wav

Peak level 97.7 %
Track quality 100.0 %
Test CRC D59CB8E2
Copy CRC D59CB8E2
Accurately ripped (confidence 6) [C8C45828]
Copy OK

Track 14

Filename F:\14 – Don’t.wav

Peak level 100.0 %
Track quality 100.0 %
Test CRC A992A52C
Copy CRC A992A52C
Accurately ripped (confidence 6) [6B3901CB]
Copy OK

All tracks accurately ripped

No errors occurred

End of status report

REM GENRE “Punk Rock”
REM DATE 1994
REM DISCID BE07810E
REM COMMENT “ExactAudioCopy v0.99pb4”
PERFORMER “Blink-182”
TITLE “Buddha”
FILE “01 – Carousel.wav” WAVE
TRACK 01 AUDIO
TITLE “Carousel”
PERFORMER “Blink-182”
INDEX 01 00:00:00
FILE “02 – T.V..wav” WAVE
TRACK 02 AUDIO
TITLE “T.V.”
PERFORMER “Blink-182”
INDEX 01 00:00:00
FILE “03 – Strings.wav” WAVE
TRACK 03 AUDIO
TITLE “Strings”
PERFORMER “Blink-182”
INDEX 01 00:00:00
FILE “04 – Fentoozler.wav” WAVE
TRACK 04 AUDIO
TITLE “Fentoozler”
PERFORMER “Blink-182”
INDEX 01 00:00:00
FILE “05 – Time.wav” WAVE
TRACK 05 AUDIO
TITLE “Time”
PERFORMER “Blink-182”
INDEX 01 00:00:00
FILE “06 – Romeo & Rebecca.wav” WAVE
TRACK 06 AUDIO
TITLE “Romeo & Rebecca”
PERFORMER “Blink-182”
INDEX 01 00:00:00
FILE “07 – 21 Days.wav” WAVE
TRACK 07 AUDIO
TITLE “21 Days”
PERFORMER “Blink-182”
INDEX 01 00:00:00
FILE “08 – Sometimes.wav” WAVE
TRACK 08 AUDIO
TITLE “Sometimes”
PERFORMER “Blink-182”
INDEX 01 00:00:00
FILE “09 – Point of View.wav” WAVE
TRACK 09 AUDIO
TITLE “Point of View”
PERFORMER “Blink-182”
INDEX 01 00:00:00
FILE “10 – My Pet Sally.wav” WAVE
TRACK 10 AUDIO
TITLE “My Pet Sally”
PERFORMER “Blink-182”
INDEX 01 00:00:00
FILE “11 – Reebok Commercial.wav” WAVE
TRACK 11 AUDIO
TITLE “Reebok Commercial”
PERFORMER “Blink-182”
INDEX 01 00:00:00
FILE “12 – Toast & Bananas.wav” WAVE
TRACK 12 AUDIO
TITLE “Toast & Bananas”
PERFORMER “Blink-182”
INDEX 01 00:00:00
FILE “13 – The Girl Next Door.wav” WAVE
TRACK 13 AUDIO
TITLE “The Girl Next Door”
PERFORMER “Blink-182”
INDEX 01 00:00:00
FILE “14 – Don’t.wav” WAVE
TRACK 14 AUDIO
TITLE “Don’t”
PERFORMER “Blink-182”
INDEX 01 00:00:00

Leave a Reply

Your email address will not be published. Required fields are marked *

Enter the text from the image below
 

This site uses Akismet to reduce spam. Learn how your comment data is processed.