Blink-182 – Blink-182 (Australian Exclusive Tour Edition)




Artist: Blink-182
Year: 2004
Genre: Punk
Notes: Discogs
Add. Notes:
Cover incl.: Yes
Encoder: FLAC
Bitrate: ~1000 kBit/s (44.1 kHz/16 Bit/s)
Log & Cue incl.: Yes
Size: 402,66 MB
Password: “slam” (without ” “)


All Downloads/Hosters are compatible

Download 1
Turbobit.net
Rapidgator.net
UploadEver.com
KatFile.com
UsersDrive.com
Download 2
Turbobit.net
Rapidgator.net
UploadEver.com
KatFile.com
UsersDrive.com
Download 3
Turbobit.net
Rapidgator.net
UploadEver.com
KatFile.com
UsersDrive.com

Tracklist:

1 Feeling This 
2 Obvious 
3 I Miss You 
4 Violence 
5 Stockholm Syndrome 
6 Down 
7 The Fallen Interlude 
8 Go 
9 Asthenia 
10 Always 
11 Easy Target 
12 All Of This 
13 Here's Your Letter 
14 I'm Lost Without You 
Bonus Track:
15 Rock Show (Live At Minneapolis) 
16 I Miss You (Live At Minneapolis)

EAC-Log, CUE-Sheed & NFO:

Click to open spoiler
Exact Audio Copy V0.99 prebeta 4 from 23. January 2008

EAC extraction logfile from 27. April 2008, 16:53

Blink 182 / Blink 182

Used drive : HL-DT-STDVD-ROM GDR8164B Adapter: 1 ID: 1

Read mode : Secure
Utilize accurate stream : Yes
Defeat audio cache : Yes
Make use of C2 pointers : No

Read offset correction : 102
Overread into Lead-In and Lead-Out : No
Fill up missing offset samples with silence : Yes
Delete leading and trailing silent blocks : No
Null samples used in CRC calculations : Yes
Used interface : Installed external ASPI interface
Gap handling : Appended to previous track

Used output format : User Defined Encoder
Selected bitrate : 128 kBit/s
Quality : High
Add ID3 tag : No
Command line compressor : C:\Program Files\Exact Audio Copy\Flac\flac.exe
Additional command line options : -8 -A tukey(0.25) -A gauss(0.1875) -b 4096 -V -T “artist=%a” -T “title=%t” -T “album=%g” -T “date=%y” -T “tracknumber=%n” -T “genre=%m” %s –sector-align

TOC of the extracted CD

Track | Start | Length | Start sector | End sector
———————————————————
1 | 0:00.00 | 2:52.46 | 0 | 12945
2 | 2:52.46 | 2:43.38 | 12946 | 25208
3 | 5:36.09 | 3:47.19 | 25209 | 42252
4 | 9:23.28 | 5:20.03 | 42253 | 66255
5 | 14:43.31 | 2:41.10 | 66256 | 78340
6 | 17:24.41 | 3:03.65 | 78341 | 92130
7 | 20:28.31 | 2:12.26 | 92131 | 102056
8 | 22:40.57 | 1:53.17 | 102057 | 110548
9 | 24:33.74 | 4:19.57 | 110549 | 130030
10 | 28:53.56 | 4:11.65 | 130031 | 148920
11 | 33:05.46 | 2:20.43 | 148921 | 159463
12 | 35:26.14 | 4:40.02 | 159464 | 180465
13 | 40:06.16 | 2:54.50 | 180466 | 193565
14 | 43:00.66 | 6:21.41 | 193566 | 222181
15 | 49:22.32 | 3:36.38 | 222182 | 238419
16 | 52:58.70 | 3:57.61 | 238420 | 256255
17 | 59:28.56 | 9:55.07 | 267656 | 312287

Track 1

Filename C:\Documents and Settings\Alex\Desktop\Blink 182\Blink 182\01 Feeling This.wav

Pre-gap length 0:00:02.00

Peak level 98.8 %
Track quality 100.0 %
Test CRC B818AB4B
Copy CRC B818AB4B
Track not present in AccurateRip database
Copy OK

Track 2

Filename C:\Documents and Settings\Alex\Desktop\Blink 182\Blink 182\02 Obvious.wav

Peak level 98.8 %
Track quality 100.0 %
Test CRC E9ECBB1F
Copy CRC E9ECBB1F
Track not present in AccurateRip database
Copy OK

Track 3

Filename C:\Documents and Settings\Alex\Desktop\Blink 182\Blink 182\03 I Miss You.wav

Peak level 99.9 %
Track quality 100.0 %
Test CRC 6B113407
Copy CRC 6B113407
Track not present in AccurateRip database
Copy OK

Track 4

Filename C:\Documents and Settings\Alex\Desktop\Blink 182\Blink 182\04 Violence.wav

Peak level 98.8 %
Track quality 100.0 %
Test CRC F45FBE45
Copy CRC F45FBE45
Track not present in AccurateRip database
Copy OK

Track 5

Filename C:\Documents and Settings\Alex\Desktop\Blink 182\Blink 182\05 Stockholm Syndrome.wav

Pre-gap length 0:01:40.64

Peak level 100.0 %
Track quality 100.0 %
Test CRC 38A55C2C
Copy CRC 38A55C2C
Track not present in AccurateRip database
Copy OK

Track 6

Filename C:\Documents and Settings\Alex\Desktop\Blink 182\Blink 182\06 Down.wav

Peak level 98.8 %
Track quality 100.0 %
Test CRC F6182469
Copy CRC F6182469
Track not present in AccurateRip database
Copy OK

Track 7

Filename C:\Documents and Settings\Alex\Desktop\Blink 182\Blink 182\07 The Fallen Interlude.wav

Peak level 98.8 %
Track quality 100.0 %
Test CRC 79655328
Copy CRC 79655328
Track not present in AccurateRip database
Copy OK

Track 8

Filename C:\Documents and Settings\Alex\Desktop\Blink 182\Blink 182\08 Go.wav

Peak level 98.8 %
Track quality 99.9 %
Test CRC 9334B308
Copy CRC 9334B308
Track not present in AccurateRip database
Copy OK

Track 9

Filename C:\Documents and Settings\Alex\Desktop\Blink 182\Blink 182\09 Asthenia.wav

Peak level 100.0 %
Track quality 100.0 %
Test CRC F08F8BC5
Copy CRC F08F8BC5
Track not present in AccurateRip database
Copy OK

Track 10

Filename C:\Documents and Settings\Alex\Desktop\Blink 182\Blink 182\10 Always.wav

Peak level 98.8 %
Track quality 100.0 %
Test CRC 7F0FDFA6
Copy CRC 7F0FDFA6
Track not present in AccurateRip database
Copy OK

Track 11

Filename C:\Documents and Settings\Alex\Desktop\Blink 182\Blink 182\11 Easy Target.wav

Peak level 99.1 %
Track quality 100.0 %
Test CRC 20FDA0FF
Copy CRC 20FDA0FF
Track not present in AccurateRip database
Copy OK

Track 12

Filename C:\Documents and Settings\Alex\Desktop\Blink 182\Blink 182\12 All Of This.wav

Peak level 100.0 %
Track quality 100.0 %
Test CRC DF70C249
Copy CRC DF70C249
Track not present in AccurateRip database
Copy OK

Track 13

Filename C:\Documents and Settings\Alex\Desktop\Blink 182\Blink 182\13 Here’s Your Letter.wav

Peak level 98.8 %
Track quality 99.9 %
Test CRC 7C9D64A7
Copy CRC 7C9D64A7
Track not present in AccurateRip database
Copy OK

Track 14

Filename C:\Documents and Settings\Alex\Desktop\Blink 182\Blink 182\14 I’m Lost Without You.wav

Peak level 93.4 %
Track quality 99.9 %
Test CRC C2E33643
Copy CRC C2E33643
Track not present in AccurateRip database
Copy OK

Track 15

Filename C:\Documents and Settings\Alex\Desktop\Blink 182\Blink 182\15 Rock Show (Live In Minneapolis) (Bonus Track).wav

Pre-gap length 0:00:01.00

Peak level 100.0 %
Track quality 99.9 %
Test CRC F37A1834
Copy CRC F37A1834
Track not present in AccurateRip database
Copy OK

Track 16

Filename C:\Documents and Settings\Alex\Desktop\Blink 182\Blink 182\16 I Miss You (Live In Minneapolis) (Bonus Track).wav

Pre-gap length 0:00:01.25

Peak level 98.8 %
Track quality 100.0 %
Test CRC 28A9B0F5
Copy CRC 28A9B0F5
Track not present in AccurateRip database
Copy OK

None of the tracks are present in the AccurateRip database

No errors occurred

End of status report

REM GENRE “Punk Rock”
REM DATE 2003
REM DISCID F4104311
REM COMMENT “ExactAudioCopy v0.99pb4”
PERFORMER “Blink-182”
TITLE “Blink-182”
FILE “01 – Feeling This.wav” WAVE
TRACK 01 AUDIO
TITLE “Feeling This”
PERFORMER “Blink-182”
INDEX 01 00:00:00
FILE “02 – Obvious.wav” WAVE
TRACK 02 AUDIO
TITLE “Obvious”
PERFORMER “Blink-182”
INDEX 01 00:00:00
FILE “03 – I Miss You.wav” WAVE
TRACK 03 AUDIO
TITLE “I Miss You”
PERFORMER “Blink-182”
INDEX 01 00:00:00
FILE “04 – Violence.wav” WAVE
TRACK 04 AUDIO
TITLE “Violence”
PERFORMER “Blink-182”
INDEX 01 00:00:00
TRACK 05 AUDIO
TITLE “Stockholm Syndrome”
PERFORMER “Blink-182”
INDEX 00 03:39:30
FILE “05 – Stockholm Syndrome.wav” WAVE
INDEX 01 00:00:00
FILE “06 – Down.wav” WAVE
TRACK 06 AUDIO
TITLE “Down”
PERFORMER “Blink-182”
INDEX 01 00:00:00
FILE “07 – The Fallen Interlude.wav” WAVE
TRACK 07 AUDIO
TITLE “The Fallen Interlude”
PERFORMER “Blink-182”
INDEX 01 00:00:00
FILE “08 – Go.wav” WAVE
TRACK 08 AUDIO
TITLE “Go”
PERFORMER “Blink-182”
INDEX 01 00:00:00
FILE “09 – Asthenia.wav” WAVE
TRACK 09 AUDIO
TITLE “Asthenia”
PERFORMER “Blink-182”
INDEX 01 00:00:00
FILE “10 – Always.wav” WAVE
TRACK 10 AUDIO
TITLE “Always”
PERFORMER “Blink-182”
INDEX 01 00:00:00
FILE “11 – Easy Target.wav” WAVE
TRACK 11 AUDIO
TITLE “Easy Target”
PERFORMER “Blink-182”
INDEX 01 00:00:00
FILE “12 – All Of This.wav” WAVE
TRACK 12 AUDIO
TITLE “All Of This”
PERFORMER “Blink-182”
INDEX 01 00:00:00
FILE “13 – Here’s Your Letter.wav” WAVE
TRACK 13 AUDIO
TITLE “Here’s Your Letter”
PERFORMER “Blink-182”
INDEX 01 00:00:00
FILE “14 – I’m Lost Without You.wav” WAVE
TRACK 14 AUDIO
TITLE “I’m Lost Without You”
PERFORMER “Blink-182”
INDEX 01 00:00:00
TRACK 15 AUDIO
TITLE “The Rock Show (Live In Minneapolis) (Bonus Track)”
PERFORMER “Blink-182”
INDEX 00 06:20:41
FILE “15 – The Rock Show (Live In Minneapolis) (Bonus Track).wav” WAVE
INDEX 01 00:00:00
TRACK 16 AUDIO
TITLE “I Miss You (Live In Minneapolis) (Bonus Track)”
PERFORMER “Blink-182”
INDEX 00 03:35:19
FILE “16 – I Miss You (Live In Minneapolis) (Bonus Track).wav” WAVE
INDEX 01 00:00:00

Leave a Reply

Your email address will not be published. Required fields are marked *

Enter the text from the image below
 

This site uses Akismet to reduce spam. Learn how your comment data is processed.