Blackmore’s Night – Winter Carols (Japanese Edition)




Artist: Blackmore’s Night
Year: 2006
Genre: Rock
Notes: Discogs
Add. Notes: Japanese Edition
Cover incl.: Yes
Encoder: FLAC
Bitrate: ~900 kBit/s (44.1 kHz/16 Bit/s)
Log & Cue incl.: Yes/Yes
Size: 345,9 MB
Password: “slam” (without ” “)


All Downloads/Hosters are compatible

Download 1
KatFile.com
Turbobit.net
FileFactory.com
Rapidgator.net
Download 2
KatFile.com
Turbobit.net
FileFactory.com
Rapidgator.net

Tracklist:

1 Hark The Herald Angels Sing / Come All Ye Faithful 3:50
2 I Saw Three Ships 2:40
3 Winter (Basse Dance) 3:07
4 Ding Dong Merrily On High 3:16
5 Ma-O-Tzur 2:19
6 Good King Wenceslas 4:44
7 Lord Of The Dance / Simple Gifts 3:34
8 We Three Kings 4:48
9 Wish You Were Here 5:02
10 Emmanuel 3:32
11 Christmas Eve 4:20
12 We Wish You A Merry Christmas 1:21

EAC-Log, CUE-Sheed & NFO:

Click to open spoiler
Exact Audio Copy V1.0 beta 3 from 29. August 2011

EAC extraction logfile from 19. July 2014, 11:36

Blackmore’s Night / Winter Carols

Used drive : SlimtypeDVD A DS8A5SH Adapter: 0 ID: 1

Read mode : Secure
Utilize accurate stream : Yes
Defeat audio cache : Yes
Make use of C2 pointers : No

Read offset correction : 6
Overread into Lead-In and Lead-Out : No
Fill up missing offset samples with silence : Yes
Delete leading and trailing silent blocks : No
Null samples used in CRC calculations : Yes
Used interface : Native Win32 interface for Win NT & 2000

Used output format : User Defined Encoder
Selected bitrate : 320 kBit/s
Quality : High
Add ID3 tag : No
Command line compressor : C:\Program Files (x86)\Exact Audio Copy\Flac\flac.exe
Additional command line options : -V -8 -T “Date=%year%” -T “Genre=%genre%” %source%

TOC of the extracted CD

Track | Start | Length | Start sector | End sector
———————————————————
1 | 0:00.00 | 3:50.29 | 0 | 17278
2 | 3:50.29 | 2:40.28 | 17279 | 29306
3 | 6:30.57 | 3:07.61 | 29307 | 43392
4 | 9:38.43 | 3:16.36 | 43393 | 58128
5 | 12:55.04 | 2:19.27 | 58129 | 68580
6 | 15:14.31 | 4:44.31 | 68581 | 89911
7 | 19:58.62 | 3:34.30 | 89912 | 105991
8 | 23:33.17 | 4:48.44 | 105992 | 127635
9 | 28:21.61 | 5:02.05 | 127636 | 150290
10 | 33:23.66 | 3:32.60 | 150291 | 166250
11 | 36:56.51 | 4:20.07 | 166251 | 185757
12 | 41:16.58 | 1:21.12 | 185758 | 191844

Range status and errors

Selected range

Filename D:\My Music\Blackmore’s Night – Japanese Lossless Discography\Blackmore’s Night – 2006 Winter Carols\Blackmore’s Night – Winter Carols.wav

Peak level 100.0 %
Extraction speed 1.8 X
Range quality 100.0 %
Test CRC 05653D2C
Copy CRC 05653D2C
Copy OK

No errors occurred

AccurateRip summary

Track 1 accurately ripped (confidence 3) [2DD51FC3] (AR v2)
Track 2 accurately ripped (confidence 3) [A42C6D76] (AR v2)
Track 3 accurately ripped (confidence 3) [2F36653A] (AR v2)
Track 4 accurately ripped (confidence 3) [F8078CD4] (AR v2)
Track 5 accurately ripped (confidence 3) [D623B348] (AR v2)
Track 6 accurately ripped (confidence 3) [3EA436B7] (AR v2)
Track 7 accurately ripped (confidence 3) [E08EA5C8] (AR v2)
Track 8 accurately ripped (confidence 3) [64978635] (AR v2)
Track 9 accurately ripped (confidence 3) [E88FABF5] (AR v2)
Track 10 accurately ripped (confidence 3) [80389782] (AR v2)
Track 11 accurately ripped (confidence 3) [BFA0E3EB] (AR v2)
Track 12 accurately ripped (confidence 3) [B540A4C0] (AR v2)

All tracks accurately ripped

End of status report

==== Log checksum 3195893B8506E1546AFEE003711D6936ADAD80CCF0072D7952FD56711A2CB084 ====

REM GENRE “Folk Rock”
REM DATE 2006
REM DISCID 8B09FD0C
REM COMMENT “ExactAudioCopy v1.0b3”
PERFORMER “Blackmore’s Night”
TITLE “Winter Carols”
FILE “Blackmore’s Night – Winter Carols.flac” WAVE
TRACK 01 AUDIO
TITLE “Hark The Herald Angels Sing/Come All Ye Faithful”
PERFORMER “Blackmore’s Night”
ISRC DEZ900601166
INDEX 01 00:00:00
TRACK 02 AUDIO
TITLE “I Saw Three Ships”
PERFORMER “Blackmore’s Night”
ISRC DEZ900601167
INDEX 00 03:46:00
INDEX 01 03:50:29
TRACK 03 AUDIO
TITLE “Winter (basse dance)”
PERFORMER “Blackmore’s Night”
ISRC DEZ900601168
INDEX 00 06:25:63
INDEX 01 06:30:57
TRACK 04 AUDIO
TITLE “Ding Dong Merrily On High”
PERFORMER “Blackmore’s Night”
ISRC DEZ900601169
INDEX 00 09:34:36
INDEX 01 09:38:43
TRACK 05 AUDIO
TITLE “Ma-O-Tzur”
PERFORMER “Blackmore’s Night”
ISRC DEZ900601170
INDEX 00 12:50:09
INDEX 01 12:55:04
TRACK 06 AUDIO
TITLE “Good King Wenceslas”
PERFORMER “Blackmore’s Night”
ISRC DEZ900601171
INDEX 00 15:10:19
INDEX 01 15:14:31
TRACK 07 AUDIO
TITLE “Lord of the Dance/Simple Gifts”
PERFORMER “Blackmore’s Night”
ISRC DEZ900601172
INDEX 00 19:55:70
INDEX 01 19:58:62
TRACK 08 AUDIO
TITLE “We Three Kings”
PERFORMER “Blackmore’s Night”
ISRC DEZ900601173
INDEX 00 23:29:28
INDEX 01 23:33:17
TRACK 09 AUDIO
TITLE “Wish You Were Here”
PERFORMER “Blackmore’s Night”
ISRC DEZ900601174
INDEX 00 28:17:31
INDEX 01 28:21:61
TRACK 10 AUDIO
TITLE “Emmanuel”
PERFORMER “Blackmore’s Night”
ISRC DEZ900601175
INDEX 00 33:21:52
INDEX 01 33:23:66
TRACK 11 AUDIO
TITLE “Christmas Eve”
PERFORMER “Blackmore’s Night”
ISRC DEZ900601176
INDEX 00 36:51:72
INDEX 01 36:56:51
TRACK 12 AUDIO
TITLE “We Wish You A Merry Christmas”
PERFORMER “Blackmore’s Night”
ISRC DEZ900601177
INDEX 00 41:12:63
INDEX 01 41:16:58


Leave a Reply

Your email address will not be published. Required fields are marked *

Enter the text from the image below
 

This site uses Akismet to reduce spam. Learn how your comment data is processed.