Blackmore’s Night – Village Lanterne (Japanese Edition)




[Total: 0    Average: 0/5]

Artist: Blackmore’s Night
Year: 2006
Genre: Rock
Notes: Discogs
Add. Notes: Japanese Edition
Cover incl.: Yes
Encoder: FLAC
Bitrate: ~900 kBit/s (44.1 kHz/16 Bit/s)
Log & Cue incl.: Yes
Size: 591,4 MB
Password: “slam” (without ” “)


All Downloads/Hosters are compatible

Download 1
KatFile.com
Turbobit.net
FileFactory.com
Rapidgator.net
Download 2
KatFile.com
Turbobit.net
FileFactory.com
Rapidgator.net
Download 3
KatFile.com
Turbobit.net
FileFactory.com
Rapidgator.net

Tracklist:

1 25 Years 4:57
2 Olde Village Lanterne 5:13
3 I Guess It Doesn't Matter Anymore 4:50
4 The Messenger 2:55
5 World Of Stone 4:25
6 Faerie Queen 4:56
7 St. Teresa 5:26
8 Village Dance 1:58
9 Mond Tanz / Child In Time 6:12
10 Streets Of London 3:48
11 Just Call My Name (I'll Be There) 4:49
12 Olde Mill Inn 3:20
13 Windmills 3:27
14 Street Of Dreams 4:34
15 Once In A Garden 3:30
Bonus Track
16 Street Of Dreams 4:31

EAC-Log, CUE-Sheed & NFO:

Click to open spoiler
Exact Audio Copy V1.0 beta 3 from 29. August 2011

EAC extraction logfile from 15. May 2014, 1:42

Blackmore’s Night / Village Lanterne

Used drive : SlimtypeDVD A DS8A5SH Adapter: 0 ID: 1

Read mode : Secure
Utilize accurate stream : Yes
Defeat audio cache : Yes
Make use of C2 pointers : No

Read offset correction : 6
Overread into Lead-In and Lead-Out : No
Fill up missing offset samples with silence : Yes
Delete leading and trailing silent blocks : No
Null samples used in CRC calculations : Yes
Used interface : Native Win32 interface for Win NT & 2000

Used output format : User Defined Encoder
Selected bitrate : 320 kBit/s
Quality : High
Add ID3 tag : No
Command line compressor : C:\Program Files (x86)\Exact Audio Copy\Flac\flac.exe
Additional command line options : -V -8 -T “Date=%year%” -T “Genre=%genre%” %source%

TOC of the extracted CD

Track | Start | Length | Start sector | End sector
———————————————————
1 | 0:00.00 | 4:57.61 | 0 | 22335
2 | 4:57.61 | 5:13.69 | 22336 | 45879
3 | 10:11.55 | 4:50.10 | 45880 | 67639
4 | 15:01.65 | 2:55.02 | 67640 | 80766
5 | 17:56.67 | 4:25.60 | 80767 | 100701
6 | 22:22.52 | 4:56.58 | 100702 | 122959
7 | 27:19.35 | 5:26.31 | 122960 | 147440
8 | 32:45.66 | 1:58.21 | 147441 | 156311
9 | 34:44.12 | 6:12.28 | 156312 | 184239
10 | 40:56.40 | 3:48.01 | 184240 | 201340
11 | 44:44.41 | 4:49.03 | 201341 | 223018
12 | 49:33.44 | 3:20.44 | 223019 | 238062
13 | 52:54.13 | 3:27.00 | 238063 | 253587
14 | 56:21.13 | 4:34.60 | 253588 | 274197
15 | 60:55.73 | 3:30.02 | 274198 | 289949
16 | 64:26.00 | 4:31.15 | 289950 | 310289

Range status and errors

Selected range

Filename D:\My Music\Blackmore’s Night – 2006 Village Lanterne\Blackmore’s Night – Village Lanterne.wav

Peak level 100.0 %
Extraction speed 2.1 X
Range quality 100.0 %
Test CRC 4790FA38
Copy CRC 4790FA38
Copy OK

No errors occurred

AccurateRip summary

Track 1 accurately ripped (confidence 8) [35A8A958] (AR v2)
Track 2 accurately ripped (confidence 8) [983F0050] (AR v2)
Track 3 accurately ripped (confidence 8) [BD70FE7B] (AR v2)
Track 4 accurately ripped (confidence 8) [7306CE6A] (AR v2)
Track 5 accurately ripped (confidence 8) [983058EE] (AR v2)
Track 6 accurately ripped (confidence 8) [21EA12BA] (AR v2)
Track 7 accurately ripped (confidence 8) [A0F1C7E7] (AR v2)
Track 8 accurately ripped (confidence 8) [AA66D83C] (AR v2)
Track 9 accurately ripped (confidence 8) [6FAA5540] (AR v2)
Track 10 accurately ripped (confidence 8) [31665588] (AR v2)
Track 11 accurately ripped (confidence 8) [2D9DBC92] (AR v2)
Track 12 accurately ripped (confidence 8) [5701D5BC] (AR v2)
Track 13 accurately ripped (confidence 8) [C5A013DA] (AR v2)
Track 14 accurately ripped (confidence 8) [B5DC1044] (AR v2)
Track 15 accurately ripped (confidence 8) [2EBD482F] (AR v2)
Track 16 accurately ripped (confidence 8) [23CE0D4A] (AR v2)

All tracks accurately ripped

End of status report

==== Log checksum 71E1E37988EB01F6FB0F75C6FE86A29FA98EEE0BA38206E2066AF5A96D20517C ====

REM GENRE “Folk Rock”
REM DATE 2006
REM DISCID 0C102910
REM COMMENT “ExactAudioCopy v1.0b3”
PERFORMER “Blackmore’s Night”
TITLE “Village Lanterne”
FILE “Blackmore’s Night – Village Lanterne.flac” WAVE
TRACK 01 AUDIO
TITLE “25 years”
PERFORMER “Blackmore’s Night”
INDEX 01 00:00:00
TRACK 02 AUDIO
TITLE “Old Village Lanterne”
PERFORMER “Blackmore’s Night”
INDEX 00 04:53:26
INDEX 01 04:57:61
TRACK 03 AUDIO
TITLE “I Guess It Doesn’t Matter Anymore”
PERFORMER “Blackmore’s Night”
INDEX 00 10:06:47
INDEX 01 10:11:55
TRACK 04 AUDIO
TITLE “The Messenger”
PERFORMER “Blackmore’s Night”
INDEX 00 14:57:50
INDEX 01 15:01:65
TRACK 05 AUDIO
TITLE “World Of Stone”
PERFORMER “Blackmore’s Night”
INDEX 00 17:52:51
INDEX 01 17:56:67
TRACK 06 AUDIO
TITLE “Faerie Queen”
PERFORMER “Blackmore’s Night”
INDEX 00 22:18:19
INDEX 01 22:22:52
TRACK 07 AUDIO
TITLE “St. Teresa”
PERFORMER “Blackmore’s Night”
INDEX 00 27:16:01
INDEX 01 27:19:35
TRACK 08 AUDIO
TITLE “Village Dance”
PERFORMER “Blackmore’s Night”
INDEX 00 32:42:22
INDEX 01 32:45:66
TRACK 09 AUDIO
TITLE “Mond Tanz / Child In Time”
PERFORMER “Blackmore’s Night”
INDEX 00 34:39:55
INDEX 01 34:44:12
TRACK 10 AUDIO
TITLE “Streets Of London”
PERFORMER “Blackmore’s Night”
INDEX 00 40:52:16
INDEX 01 40:56:40
TRACK 11 AUDIO
TITLE “Just Call My Name (I’ll Be There)”
PERFORMER “Blackmore’s Night”
INDEX 00 44:39:64
INDEX 01 44:44:41
TRACK 12 AUDIO
TITLE “Olde Mill Inn”
PERFORMER “Blackmore’s Night”
INDEX 00 49:29:71
INDEX 01 49:33:44
TRACK 13 AUDIO
TITLE “Windmills”
PERFORMER “Blackmore’s Night”
INDEX 00 52:50:06
INDEX 01 52:54:13
TRACK 14 AUDIO
TITLE “Street Of Dreams”
PERFORMER “Blackmore’s Night”
INDEX 00 56:16:55
INDEX 01 56:21:13
TRACK 15 AUDIO
TITLE “Once In A Garden”
PERFORMER “Blackmore’s Night”
INDEX 00 60:52:28
INDEX 01 60:55:73
TRACK 16 AUDIO
TITLE “Street Of Dreams (Special Track)”
PERFORMER “Blackmore’s Night”
INDEX 00 64:24:00
INDEX 01 64:26:00


Spread the Download

Leave a Reply

Your email address will not be published. Required fields are marked *

Enter the text from the image below
 

This site uses Akismet to reduce spam. Learn how your comment data is processed.