Blackmore’s Night – Under A Violet Moon (Limited Japanese Edition)




Artist: Blackmore’s Night
Year: 1999
Genre: Rock
Notes: Discogs
Add. Notes: Limited Japanese Edition
Cover incl.: Yes
Encoder: FLAC
Bitrate: ~900 kBit/s (44.1 kHz/16 Bit/s)
Log & Cue incl.: Yes
Size: 646 MB
Password: “slam” (without ” “)


All Downloads/Hosters are compatible

Download 1
KatFile.com
Turbobit.net
Rapidgator.net
Download 2
KatFile.com
Turbobit.net
Rapidgator.net

Tracklist:

1. Under A Violet Moon
2. Self Portrait
3. Past Time With Good Company
4. Castles And Dreams
5. Morning Star
6. Avalon
7. Possum Goes To Prague
8. Wind In The Willows
9. Gone With The Wind
10. Beyond The Sunset
11. March The Heroes Home
12. Spanish Nights (I Remember It 
Well)
13. Catherine Howard's Fate
14. Fool's Gold
15. Durch Den Wald Zum Bach Haus
16. Now And Then

EAC-Log, CUE-Sheed & NFO:

Click to open spoiler
Exact Audio Copy V1.0 beta 3 from 29. August 2011

EAC extraction logfile from 13. May 2014, 2:00

Blackmores Night / Under A Violet Moon

Used drive : SlimtypeDVD A DS8A5SH Adapter: 0 ID: 1

Read mode : Secure
Utilize accurate stream : Yes
Defeat audio cache : Yes
Make use of C2 pointers : No

Read offset correction : 6
Overread into Lead-In and Lead-Out : No
Fill up missing offset samples with silence : Yes
Delete leading and trailing silent blocks : No
Null samples used in CRC calculations : Yes
Used interface : Native Win32 interface for Win NT & 2000

Used output format : User Defined Encoder
Selected bitrate : 320 kBit/s
Quality : High
Add ID3 tag : No
Command line compressor : C:\Program Files (x86)\Exact Audio Copy\Flac\flac.exe
Additional command line options : -V -8 -T “Date=%year%” -T “Genre=%genre%” %source%

TOC of the extracted CD

Track | Start | Length | Start sector | End sector
———————————————————
1 | 0:00.00 | 4:23.37 | 0 | 19761
2 | 4:23.37 | 3:33.30 | 19762 | 35766
3 | 7:56.67 | 3:24.13 | 35767 | 51079
4 | 11:21.05 | 4:41.02 | 51080 | 72156
5 | 16:02.07 | 3:02.48 | 72157 | 85854
6 | 19:04.55 | 1:13.10 | 85855 | 91339
7 | 20:17.65 | 4:12.12 | 91340 | 110251
8 | 24:30.02 | 5:24.25 | 110252 | 134576
9 | 29:54.27 | 3:44.43 | 134577 | 151419
10 | 33:38.70 | 4:39.27 | 151420 | 172371
11 | 38:18.22 | 5:22.58 | 172372 | 196579
12 | 43:41.05 | 2:34.32 | 196580 | 208161
13 | 46:15.37 | 3:31.70 | 208162 | 224056
14 | 49:47.32 | 2:31.13 | 224057 | 235394
15 | 52:18.45 | 3:11.30 | 235395 | 249749
16 | 55:30.00 | 3:18.40 | 249750 | 264639

Range status and errors

Selected range

Filename D:\My Music\Blackmore’s Night – 1999 Under A Violet Moon\Blackmore’s Night – Under A Violet Moon.wav

Peak level 100.0 %
Extraction speed 1.8 X
Range quality 100.0 %
Test CRC BBE8912B
Copy CRC BBE8912B
Copy OK

No errors occurred

AccurateRip summary

Track 1 accurately ripped (confidence 10) [C934390D] (AR v2)
Track 2 accurately ripped (confidence 10) [F89E2BF9] (AR v2)
Track 3 accurately ripped (confidence 10) [E1A60B38] (AR v2)
Track 4 accurately ripped (confidence 10) [F453BF70] (AR v2)
Track 5 accurately ripped (confidence 10) [664CD9C3] (AR v2)
Track 6 accurately ripped (confidence 10) [376059BC] (AR v2)
Track 7 accurately ripped (confidence 10) [753503F8] (AR v2)
Track 8 accurately ripped (confidence 10) [9C04EA9B] (AR v2)
Track 9 accurately ripped (confidence 10) [FE8FD335] (AR v2)
Track 10 accurately ripped (confidence 10) [C6A62820] (AR v2)
Track 11 accurately ripped (confidence 10) [D8606ECA] (AR v2)
Track 12 accurately ripped (confidence 10) [BF5B87D3] (AR v2)
Track 13 accurately ripped (confidence 10) [679CE27B] (AR v2)
Track 14 accurately ripped (confidence 10) [EAF2DEC7] (AR v2)
Track 15 accurately ripped (confidence 10) [CAAF3241] (AR v2)
Track 16 accurately ripped (confidence 10) [AF0E30A5] (AR v2)

All tracks accurately ripped

End of status report

==== Log checksum 10638C6198ED9673D6D4FDBD86B7EC4DEE8BC5038718D2BABF12EF65400E65F0 ====

REM GENRE “Folk Rock”
REM DATE 1999
REM DISCID E00DC810
REM COMMENT “ExactAudioCopy v1.0b3”
PERFORMER “Blackmore’s Night”
TITLE “Under A Violet Moon”
FILE “Blackmore’s Night – Under A Violet Moon.flac” WAVE
TRACK 01 AUDIO
TITLE “Under A Violet Moon”
PERFORMER “Blackmore’s Night”
INDEX 01 00:00:00
TRACK 02 AUDIO
TITLE “Castles And Dreams”
PERFORMER “Blackmore’s Night”
INDEX 01 04:23:37
TRACK 03 AUDIO
TITLE “Past Time With Good Company”
PERFORMER “Blackmore’s Night”
INDEX 00 07:54:50
INDEX 01 07:56:67
TRACK 04 AUDIO
TITLE “Morning Star”
PERFORMER “Blackmore’s Night”
INDEX 00 11:17:65
INDEX 01 11:21:05
TRACK 05 AUDIO
TITLE “Avalon”
PERFORMER “Blackmore’s Night”
INDEX 01 16:02:07
TRACK 06 AUDIO
TITLE “Possum Goes To Prague”
PERFORMER “Blackmore’s Night”
INDEX 01 19:04:55
TRACK 07 AUDIO
TITLE “Wind In The Willows”
PERFORMER “Blackmore’s Night”
INDEX 01 20:17:65
TRACK 08 AUDIO
TITLE “Gone With The Wind”
PERFORMER “Blackmore’s Night”
INDEX 01 24:30:02
TRACK 09 AUDIO
TITLE “Beyond The Sunset”
PERFORMER “Blackmore’s Night”
INDEX 01 29:54:27
TRACK 10 AUDIO
TITLE “March The Heroes Home”
PERFORMER “Blackmore’s Night”
INDEX 00 33:36:50
INDEX 01 33:38:70
TRACK 11 AUDIO
TITLE “Spanish Nights (I Remember It Well)”
PERFORMER “Blackmore’s Night”
INDEX 00 38:16:20
INDEX 01 38:18:22
TRACK 12 AUDIO
TITLE “Catherine Howard’s Fate”
PERFORMER “Blackmore’s Night”
INDEX 00 43:39:20
INDEX 01 43:41:05
TRACK 13 AUDIO
TITLE “Fool’s Gold”
PERFORMER “Blackmore’s Night”
INDEX 01 46:15:37
TRACK 14 AUDIO
TITLE “Durch Den Wald Zum Bach Haus”
PERFORMER “Blackmore’s Night”
INDEX 01 49:47:32
TRACK 15 AUDIO
TITLE “Now And Then”
PERFORMER “Blackmore’s Night”
INDEX 00 52:17:32
INDEX 01 52:18:45
TRACK 16 AUDIO
TITLE “Self Portrait”
PERFORMER “Blackmore’s Night”
INDEX 01 55:30:00


Leave a Reply

Your email address will not be published. Required fields are marked *

This site uses Akismet to reduce spam. Learn how your comment data is processed.