Blackmore’s Night – To The Moon And Back (Japanese Edition)




No Cover available

Artist: Blackmore’s Night
Year: 2017
Genre: Rock
Notes: Discogs
Add. Notes: Japanese Edition
Watch Songs on: YouTube
Cover incl.: Yes
Encoder: FLAC
Bitrate: ~900 kBit/s (44.1 kHz/16 Bit/s)
Log & Cue incl.: Yes/Yes
Size: 812,6 MB
Password: “slam” (without ” “)


All Downloads/Hosters are compatible

Download 1
KatFile.com
Turbobit.net
FileFactory.com
Rapidgator.net
Download 2
KatFile.com
Turbobit.net
FileFactory.com
Rapidgator.net

Tracklist:

1-1 Shadow Of The Moon 
1-2 Spirit Of The Sea 
1-3 Renaissance Faire 
1-4 Play Minstrel Play 
1-5 Under A Violet Moon 
1-6 Spanish Nights 
1-7 Fires At Midnight 
1-8 Ghost Of A Rose 
1-9 Cartouche 
1-10 Village Lanterne 
1-11 The Circle 
1-12 25 Years 
1-13 Dandelion Wine 
1-14 Home Again (Live) 
2-1 I Surrender (Bonus Track) 
2-2 Moonlight Shadow (2017 Version) 
2-3 Somewhere Over The Sea (2017 Version) 
2-4 Writing On The Wall (2017 Version) 
2-5 Coming Home (2017 Version) 
2-6 Ghost Of John (Bonus Track) 
2-7 Minstrel Hall 
2-8 Possum Goes To Prague 
2-9 Durch den Wald zum Bach Haus 
2-10 Nur eine Minute 
2-11 Village Dance 
2-12 Land Of Hope And Glory (2017 Single Version) 

EAC-Log, CUE-Sheed & NFO:

Click to open spoiler
Exact Audio Copy V1.0 beta 3 from 29. August 2011

EAC extraction logfile from 5. October 2017, 0:00

Blackmore’s Night / To The Moon And Back – 20 Years And Beyond CD1

Used drive : SlimtypeDVD A DS8A5SH Adapter: 0 ID: 0

Read mode : Secure
Utilize accurate stream : Yes
Defeat audio cache : Yes
Make use of C2 pointers : No

Read offset correction : 6
Overread into Lead-In and Lead-Out : No
Fill up missing offset samples with silence : Yes
Delete leading and trailing silent blocks : No
Null samples used in CRC calculations : Yes
Used interface : Installed external ASPI interface

Used output format : User Defined Encoder
Selected bitrate : 320 kBit/s
Quality : High
Add ID3 tag : No
Command line compressor : C:\Program Files (x86)\Exact Audio Copy\Flac\flac.exe
Additional command line options : -V -8 -T “Date=%year%” -T “Genre=%genre%” %source%

TOC of the extracted CD

Track | Start | Length | Start sector | End sector
———————————————————
1 | 0:00.00 | 5:05.42 | 0 | 22916
2 | 5:05.42 | 4:51.11 | 22917 | 44752
3 | 9:56.53 | 4:16.47 | 44753 | 63999
4 | 14:13.25 | 3:59.38 | 64000 | 81962
5 | 18:12.63 | 4:22.39 | 81963 | 101651
6 | 22:35.27 | 5:20.41 | 101652 | 125692
7 | 27:55.68 | 7:33.39 | 125693 | 159706
8 | 35:29.32 | 5:39.40 | 159707 | 185171
9 | 41:08.72 | 3:42.39 | 185172 | 201860
10 | 44:51.36 | 5:08.39 | 201861 | 224999
11 | 50:00.00 | 4:47.62 | 225000 | 246586
12 | 54:47.62 | 4:54.01 | 246587 | 268637
13 | 59:41.63 | 5:37.12 | 268638 | 293924
14 | 65:19.00 | 9:03.29 | 293925 | 334678

Range status and errors

Selected range

Filename D:\My Music\Blackmore’s Night – 2017 To The Moon And Back – 20 Years And Beyond\CD1\Blackmore’s Night – To The Moon And Back – 20 Years And Beyond CD1.wav

Peak level 100.0 %
Extraction speed 2.1 X
Range quality 100.0 %
Test CRC 09C74429
Copy CRC 09C74429
Copy OK

No errors occurred

AccurateRip summary

Track 1 not present in database
Track 2 not present in database
Track 3 not present in database
Track 4 not present in database
Track 5 not present in database
Track 6 not present in database
Track 7 not present in database
Track 8 not present in database
Track 9 not present in database
Track 10 not present in database
Track 11 not present in database
Track 12 not present in database
Track 13 not present in database
Track 14 not present in database

None of the tracks are present in the AccurateRip database

End of status report

==== Log checksum FCB044E9B231E66D9DF92B98A2F301A7FD61E73B0570CB28EF7D6FF2770801E1 ====

Exact Audio Copy V1.0 beta 3 from 29. August 2011

EAC extraction logfile from 5. October 2017, 19:25

Blackmore’s Night / To The Moon And Back – 20 Years And Beyond CD2

Used drive : SlimtypeDVD A DS8A5SH Adapter: 0 ID: 0

Read mode : Secure
Utilize accurate stream : Yes
Defeat audio cache : Yes
Make use of C2 pointers : No

Read offset correction : 6
Overread into Lead-In and Lead-Out : No
Fill up missing offset samples with silence : Yes
Delete leading and trailing silent blocks : No
Null samples used in CRC calculations : Yes
Used interface : Installed external ASPI interface

Used output format : User Defined Encoder
Selected bitrate : 320 kBit/s
Quality : High
Add ID3 tag : No
Command line compressor : C:\Program Files (x86)\Exact Audio Copy\Flac\flac.exe
Additional command line options : -V -8 -T “Date=%year%” -T “Genre=%genre%” %source%

TOC of the extracted CD

Track | Start | Length | Start sector | End sector
———————————————————
1 | 0:00.00 | 4:08.60 | 0 | 18659
2 | 4:08.60 | 2:49.27 | 18660 | 31361
3 | 6:58.12 | 4:34.67 | 31362 | 51978
4 | 11:33.04 | 3:30.44 | 51979 | 67772
5 | 15:03.48 | 3:09.02 | 67773 | 81949
6 | 18:12.50 | 3:32.69 | 81950 | 97918
7 | 21:45.44 | 2:35.44 | 97919 | 109587
8 | 24:21.13 | 1:10.17 | 109588 | 114854
9 | 25:31.30 | 2:31.28 | 114855 | 126207
10 | 28:02.58 | 1:02.41 | 126208 | 130898
11 | 29:05.24 | 1:53.54 | 130899 | 139427
12 | 30:59.03 | 2:43.20 | 139428 | 151672
13 | 36:14.23 | 24:02.31 | 163073 | 271253

Range status and errors

Selected range

Filename D:\My Music\Blackmore’s Night – 2017 To The Moon And Back – 20 Years And Beyond\CD2\Blackmore’s Night – To The Moon And Back – 20 Years And Beyond CD2.wav

Peak level 100.0 %
Extraction speed 2.5 X
Range quality 100.0 %
Test CRC A54F8F85
Copy CRC A54F8F85
Copy OK

No errors occurred

AccurateRip summary

Track 1 not present in database
Track 2 not present in database
Track 3 not present in database
Track 4 not present in database
Track 5 not present in database
Track 6 not present in database
Track 7 not present in database
Track 8 not present in database
Track 9 not present in database
Track 10 not present in database
Track 11 not present in database
Track 12 not present in database

None of the tracks are present in the AccurateRip database

End of status report

==== Log checksum 898D34491E503FE909EBE099D548CA6743CCF358962362E3376D253E1EA963E5 ====

REM GENRE Folk
REM DATE 2017
REM DISCID CC116E0E
REM COMMENT “ExactAudioCopy v1.0b3”
PERFORMER “Blackmore’s Night”
TITLE “To The Moon And Back – 20 Years And Beyond CD1”
FILE “Blackmore’s Night – To The Moon And Back – 20 Years And Beyond CD1.flac” WAVE
TRACK 01 AUDIO
TITLE “Shadow Of The Moon”
PERFORMER “Blackmore’s Night”
INDEX 01 00:00:00
TRACK 02 AUDIO
TITLE “Spirit Of The Sea”
PERFORMER “Blackmore’s Night”
INDEX 01 05:05:42
TRACK 03 AUDIO
TITLE “Renaissance Faire”
PERFORMER “Blackmore’s Night”
INDEX 01 09:56:53
TRACK 04 AUDIO
TITLE “Play Minstrel Play”
PERFORMER “Blackmore’s Night”
INDEX 01 14:13:25
TRACK 05 AUDIO
TITLE “Under A Violent Moon”
PERFORMER “Blackmore’s Night”
INDEX 01 18:12:63
TRACK 06 AUDIO
TITLE “Spanish Nights”
PERFORMER “Blackmore’s Night”
INDEX 01 22:35:27
TRACK 07 AUDIO
TITLE “Fires At Midnights”
PERFORMER “Blackmore’s Night”
INDEX 01 27:55:68
TRACK 08 AUDIO
TITLE “Ghost Of A Rose”
PERFORMER “Blackmore’s Night”
INDEX 01 35:29:32
TRACK 09 AUDIO
TITLE “Cartouche”
PERFORMER “Blackmore’s Night”
INDEX 01 41:08:72
TRACK 10 AUDIO
TITLE “Village Lanterne”
PERFORMER “Blackmore’s Night”
INDEX 01 44:51:36
TRACK 11 AUDIO
TITLE “The Circle”
PERFORMER “Blackmore’s Night”
INDEX 01 50:00:00
TRACK 12 AUDIO
TITLE “25 Years”
PERFORMER “Blackmore’s Night”
INDEX 01 54:47:62
TRACK 13 AUDIO
TITLE “Dandelion Wine”
PERFORMER “Blackmore’s Night”
INDEX 01 59:41:63
TRACK 14 AUDIO
TITLE “Home Again (live)”
PERFORMER “Blackmore’s Night”
INDEX 01 65:19:00

EM GENRE Folk
REM DATE 2017
REM DISCID AA0E200D
REM COMMENT “ExactAudioCopy v1.0b3”
PERFORMER “Blackmore’s Night”
TITLE “To The Moon And Back – 20 Years And Beyond CD2”
FILE “Blackmore’s Night – To The Moon And Back – 20 Years And Beyond CD2.flac” WAVE
TRACK 01 AUDIO
TITLE “I Surrender (bonus track)”
PERFORMER “Blackmore’s Night”
INDEX 01 00:00:00
TRACK 02 AUDIO
TITLE “Moonlight Shadow (2017 version)”
PERFORMER “Blackmore’s Night”
INDEX 01 04:08:60
TRACK 03 AUDIO
TITLE “Somewhere Over The Sea (2017 version)”
PERFORMER “Blackmore’s Night”
INDEX 01 06:58:12
TRACK 04 AUDIO
TITLE “Writing On The Wall (2017 version)”
PERFORMER “Blackmore’s Night”
INDEX 01 11:33:04
TRACK 05 AUDIO
TITLE “Coming Home (2017 version)”
PERFORMER “Blackmore’s Night”
INDEX 01 15:03:48
TRACK 06 AUDIO
TITLE “Ghost Of John (bonus track)”
PERFORMER “Blackmore’s Night”
INDEX 01 18:12:50
TRACK 07 AUDIO
TITLE “Mistrell Hall”
PERFORMER “Blackmore’s Night”
INDEX 01 21:45:44
TRACK 08 AUDIO
TITLE “Possum Goes To Prague”
PERFORMER “Blackmore’s Night”
INDEX 01 24:21:13
TRACK 09 AUDIO
TITLE “Durch Den Wald Zum Bach Haus”
PERFORMER “Blackmore’s Night”
INDEX 01 25:31:30
TRACK 10 AUDIO
TITLE “Nur Eine Minute”
PERFORMER “Blackmore’s Night”
INDEX 01 28:02:58
TRACK 11 AUDIO
TITLE “Village Dance”
PERFORMER “Blackmore’s Night”
INDEX 01 29:05:24
TRACK 12 AUDIO
TITLE “Land Of Hope And Glory (2017 single version)”
PERFORMER “Blackmore’s Night”
INDEX 01 30:59:03


Leave a Reply

Your email address will not be published. Required fields are marked *

This site uses Akismet to reduce spam. Learn how your comment data is processed.