Blackmore’s Night – Shadow Of The Moon (Japanese Edition)




Artist: Blackmore’s Night
Year: 1997
Genre: Rock
Notes: Discogs
Add. Notes: Japanese Edition
Cover incl.: Yes
Encoder: FLAC
Bitrate: ~900 kBit/s (44.1 kHz/16 Bit/s)
Log & Cue incl.: Yes
Size: 609 MB
Password: “slam” (without ” “)


All Downloads/Hosters are compatible

Download 1
KatFile.com
Turbobit.net
Rapidgator.net
Turbobit.net
Download 2
KatFile.com
Turbobit.net
Rapidgator.net
Turbobit.net

Tracklist:

1 - Shadow Of The Moon - 5:07
2 - The Clock Ticks On - 5:14
3 - Be Mine Tonight - 2:51
4 - Play Minstrel Play - 3:58
5 - Ocean Gypsy - 6:05
6 - Minstrel Hall - 2:36
7 - Magical World - 4:01
8 - Writing On The Wall - 4:35
9 - Renaissance Faire - 4:16
10 - Memmingen - 1:06
11 - No Second Chance - 5:38
12 - Mond Tanz - 3:33
13 - Spirit Of The Sea - 4:50
14 - Greensleeves - 3:47
15 - Wish You Were Here - 5:02
Bonus Track Of Japanese Edition 
Only
16 - Minstrel Hall (Bonus Track 
Version) - 2:34

EAC-Log, CUE-Sheed & NFO:

Click to open spoiler
Exact Audio Copy V1.0 beta 3 from 29. August 2011

EAC extraction logfile from 13. May 2014, 1:07

Blackmore’s Night / Shadow Of The Moon

Used drive : SlimtypeDVD A DS8A5SH Adapter: 0 ID: 1

Read mode : Secure
Utilize accurate stream : Yes
Defeat audio cache : Yes
Make use of C2 pointers : No

Read offset correction : 6
Overread into Lead-In and Lead-Out : No
Fill up missing offset samples with silence : Yes
Delete leading and trailing silent blocks : No
Null samples used in CRC calculations : Yes
Used interface : Native Win32 interface for Win NT & 2000

Used output format : User Defined Encoder
Selected bitrate : 320 kBit/s
Quality : High
Add ID3 tag : No
Command line compressor : C:\Program Files (x86)\Exact Audio Copy\Flac\flac.exe
Additional command line options : -V -8 -T “Date=%year%” -T “Genre=%genre%” %source%

TOC of the extracted CD

Track | Start | Length | Start sector | End sector
———————————————————
1 | 0:00.00 | 5:07.00 | 0 | 23024
2 | 5:07.00 | 5:14.72 | 23025 | 46646
3 | 10:21.72 | 2:51.00 | 46647 | 59471
4 | 13:12.72 | 3:59.03 | 59472 | 77399
5 | 17:12.00 | 6:05.72 | 77400 | 104846
6 | 23:17.72 | 2:35.70 | 104847 | 116541
7 | 25:53.67 | 4:01.43 | 116542 | 134659
8 | 29:55.35 | 4:35.05 | 134660 | 155289
9 | 34:30.40 | 4:16.10 | 155290 | 174499
10 | 38:46.50 | 1:05.32 | 174500 | 179406
11 | 39:52.07 | 5:38.45 | 179407 | 204801
12 | 45:30.52 | 3:33.15 | 204802 | 220791
13 | 49:03.67 | 4:50.03 | 220792 | 242544
14 | 53:53.70 | 3:46.60 | 242545 | 259554
15 | 57:40.55 | 5:01.40 | 259555 | 282169
16 | 62:42.20 | 2:33.55 | 282170 | 293699

Range status and errors

Selected range

Filename D:\My Music\Blackmore’s Night – 1997 Shadow Of The Moon\Blackmore’s Night – Shadow Of The Moon.wav

Peak level 100.0 %
Extraction speed 2.1 X
Range quality 100.0 %
Test CRC F7728C8C
Copy CRC F7728C8C
Copy OK

No errors occurred

AccurateRip summary

Track 1 accurately ripped (confidence 7) [C36ACE06] (AR v2)
Track 2 accurately ripped (confidence 7) [AC86A538] (AR v2)
Track 3 accurately ripped (confidence 7) [569E1745] (AR v2)
Track 4 accurately ripped (confidence 7) [FF4A448E] (AR v2)
Track 5 accurately ripped (confidence 7) [F4208C98] (AR v2)
Track 6 accurately ripped (confidence 7) [2425B6B4] (AR v2)
Track 7 accurately ripped (confidence 7) [55C1A86F] (AR v2)
Track 8 accurately ripped (confidence 7) [18B70404] (AR v2)
Track 9 accurately ripped (confidence 7) [B56588EC] (AR v2)
Track 10 accurately ripped (confidence 7) [C608AC16] (AR v2)
Track 11 accurately ripped (confidence 7) [2EB103F3] (AR v2)
Track 12 accurately ripped (confidence 7) [A8C580F9] (AR v2)
Track 13 accurately ripped (confidence 7) [D52DBA5C] (AR v2)
Track 14 accurately ripped (confidence 7) [2A0F1CF7] (AR v2)
Track 15 accurately ripped (confidence 7) [8F88364F] (AR v2)
Track 16 accurately ripped (confidence 7) [63ED3108] (AR v2)

All tracks accurately ripped

End of status report

==== Log checksum 95D055A2A362041F8642C797973908C265BE012700180C550C7C2CEB0B704374 ====

REM GENRE “Folk Rock”
REM DATE 1997
REM DISCID F10F4C10
REM COMMENT “ExactAudioCopy v1.0b3”
PERFORMER “Blackmore’s Night”
TITLE “Shadow Of The Moon”
FILE “Blackmore’s Night – Shadow Of The Moon.flac” WAVE
TRACK 01 AUDIO
TITLE “Shadow Of The Moon”
PERFORMER “Blackmore’s Night”
ISRC USMH19741401
INDEX 01 00:00:00
TRACK 02 AUDIO
TITLE “The Clock Ticks On”
PERFORMER “Blackmore’s Night”
ISRC USMH19741402
INDEX 01 05:07:00
TRACK 03 AUDIO
TITLE “Be Mine Tonight”
PERFORMER “Blackmore’s Night”
ISRC USMH19741403
INDEX 01 10:21:72
TRACK 04 AUDIO
TITLE “Play Minstrel Play”
PERFORMER “Blackmore’s Night”
ISRC USMH19741404
INDEX 01 13:12:72
TRACK 05 AUDIO
TITLE “Ocean Gypsy”
PERFORMER “Blackmore’s Night”
ISRC USMH19741405
INDEX 00 17:10:62
INDEX 01 17:12:00
TRACK 06 AUDIO
TITLE “Minstrel Hall”
PERFORMER “Blackmore’s Night”
ISRC USMH19741406
INDEX 01 23:17:72
TRACK 07 AUDIO
TITLE “Magical World”
PERFORMER “Blackmore’s Night”
ISRC USMH19741407
INDEX 01 25:53:67
TRACK 08 AUDIO
TITLE “Writing On The Wall”
PERFORMER “Blackmore’s Night”
ISRC USMH19741408
INDEX 00 29:54:12
INDEX 01 29:55:35
TRACK 09 AUDIO
TITLE “Renaissance Faire”
PERFORMER “Blackmore’s Night”
ISRC USMH19741409
INDEX 01 34:30:40
TRACK 10 AUDIO
TITLE “Memmingen”
PERFORMER “Blackmore’s Night”
ISRC USMH19741410
INDEX 01 38:46:50
TRACK 11 AUDIO
TITLE “No Second Chance”
PERFORMER “Blackmore’s Night”
ISRC USMH19741411
INDEX 01 39:52:07
TRACK 12 AUDIO
TITLE “Mond Tanz”
PERFORMER “Blackmore’s Night”
ISRC USMH19741412
INDEX 01 45:30:52
TRACK 13 AUDIO
TITLE “Spirit Of The Sea”
PERFORMER “Blackmore’s Night”
ISRC USMH19741413
INDEX 01 49:03:67
TRACK 14 AUDIO
TITLE “Greensleeves”
PERFORMER “Blackmore’s Night”
ISRC USMH19741414
INDEX 01 53:53:70
TRACK 15 AUDIO
TITLE “Wish You Were Here”
PERFORMER “Blackmore’s Night”
ISRC USMH19741415
INDEX 01 57:40:55
TRACK 16 AUDIO
TITLE “Minstrel Hall (bonus track version)”
PERFORMER “Blackmore’s Night”
ISRC USMH19741416
INDEX 01 62:42:20


Leave a Reply

Your email address will not be published. Required fields are marked *

Enter the text from the image below
 

This site uses Akismet to reduce spam. Learn how your comment data is processed.