Blackmore’s Night – Secret Voyage




Artist: Blackmore’s Night
Year: 2008
Genre: Rock
Notes: Discogs
Add. Notes:
Cover incl.: Yes
Encoder: FLAC
Bitrate: ~900 kBit/s (44.1 kHz/16 Bit/s)
Log & Cue incl.: Yes/Yes
Size: 448 MB
Password: “slam” (without ” “)


All Downloads/Hosters are compatible

Download 1
KatFile.com
Turbobit.net
FileFactory.com
Rapidgator.net
Download 2
KatFile.com
Turbobit.net
FileFactory.com
Rapidgator.net

Tracklist:

1 God Save The Keg 3:40
2 Locked Within The Crystal Ball 8:04
3 Gilded Cage 3:42
4 Toast To Tomorrow 3:49
5 Prince Waldecks Galliard 2:13
6 Rainbow Eyes 6:01
7 The Circle 4:48
8 Sister Gypsy 3:21
9 Can't Help Falling In Love 2:51
10 Peasants Promise 5:33
11 Far Far Away 3:54
12 Empty Words 2:42

EAC-Log, CUE-Sheed & NFO:

Click to open spoiler
Exact Audio Copy V1.0 beta 3 from 29. August 2011

EAC extraction logfile from 18. May 2014, 21:26

Blackmore’s Night / Secret Voyage

Used drive : SlimtypeDVD A DS8A5SH Adapter: 0 ID: 1

Read mode : Secure
Utilize accurate stream : Yes
Defeat audio cache : Yes
Make use of C2 pointers : No

Read offset correction : 6
Overread into Lead-In and Lead-Out : No
Fill up missing offset samples with silence : Yes
Delete leading and trailing silent blocks : No
Null samples used in CRC calculations : Yes
Used interface : Native Win32 interface for Win NT & 2000

Used output format : User Defined Encoder
Selected bitrate : 320 kBit/s
Quality : High
Add ID3 tag : No
Command line compressor : C:\Program Files (x86)\Exact Audio Copy\Flac\flac.exe
Additional command line options : -V -8 -T “Date=%year%” -T “Genre=%genre%” %source%

TOC of the extracted CD

Track | Start | Length | Start sector | End sector
———————————————————
1 | 0:00.00 | 3:40.36 | 0 | 16535
2 | 3:40.36 | 8:04.35 | 16536 | 52870
3 | 11:44.71 | 3:42.57 | 52871 | 69577
4 | 15:27.53 | 3:49.58 | 69578 | 86810
5 | 19:17.36 | 2:13.29 | 86811 | 96814
6 | 21:30.65 | 6:01.49 | 96815 | 123938
7 | 27:32.39 | 4:48.51 | 123939 | 145589
8 | 32:21.15 | 3:21.30 | 145590 | 160694
9 | 35:42.45 | 2:51.45 | 160695 | 173564
10 | 38:34.15 | 5:33.26 | 173565 | 198565
11 | 44:07.41 | 3:54.25 | 198566 | 216140
12 | 48:01.66 | 2:40.52 | 216141 | 228192
13 | 53:14.43 | 6:00.01 | 239593 | 266593

Range status and errors

Selected range

Filename D:\My Music\Blackmore’s Night – 2008 Secret Voyage\Blackmore’s Night – Secret Voyage.wav

Peak level 98.8 %
Extraction speed 2.9 X
Range quality 100.0 %
Test CRC 5A2174FA
Copy CRC 5A2174FA
Copy OK

No errors occurred

AccurateRip summary

Track 1 accurately ripped (confidence 54) [FACEDFE9] (AR v2)
Track 2 accurately ripped (confidence 54) [228FA2AE] (AR v2)
Track 3 accurately ripped (confidence 54) [A77DA0AC] (AR v2)
Track 4 accurately ripped (confidence 53) [D8F6C908] (AR v2)
Track 5 accurately ripped (confidence 55) [843B8063] (AR v2)
Track 6 accurately ripped (confidence 54) [9FDC3122] (AR v2)
Track 7 accurately ripped (confidence 54) [673A0460] (AR v2)
Track 8 accurately ripped (confidence 54) [88B4D33B] (AR v2)
Track 9 accurately ripped (confidence 54) [01DCCE1B] (AR v2)
Track 10 accurately ripped (confidence 54) [AB827A6C] (AR v2)
Track 11 accurately ripped (confidence 54) [0A087FB7] (AR v2)
Track 12 accurately ripped (confidence 54) [D31B41B6] (AR v2)

All tracks accurately ripped

End of status report

==== Log checksum 68065C794DA1002020B3D6AD77F81F26DB00E4847D1068BCEDA3B97D348A9FCF ====

REM GENRE “Folk Rock”
REM DATE 2008
REM DISCID BC0DE20D
REM COMMENT “ExactAudioCopy v1.0b3”
PERFORMER “Blackmore’s Night”
TITLE “Secret Voyage”
FILE “Blackmore’s Night – Secret Voyage.flac” WAVE
TRACK 01 AUDIO
TITLE “God Save The Keg”
PERFORMER “Blackmore’s Night”
ISRC DEA450810790
INDEX 01 00:00:00
TRACK 02 AUDIO
TITLE “Locked Within The Crystal Ball”
PERFORMER “Blackmore’s Night”
ISRC DEA450810800
INDEX 01 03:40:36
TRACK 03 AUDIO
TITLE “Gilded Cage”
PERFORMER “Blackmore’s Night”
ISRC DEA450810810
INDEX 00 11:42:55
INDEX 01 11:44:71
TRACK 04 AUDIO
TITLE “Toast To Tomorrow”
PERFORMER “Blackmore’s Night”
ISRC DEA450810820
INDEX 00 15:24:51
INDEX 01 15:27:53
TRACK 05 AUDIO
TITLE “Prince Waldeek’s Galliard”
PERFORMER “Blackmore’s Night”
ISRC DEA450810830
INDEX 00 19:15:21
INDEX 01 19:17:36
TRACK 06 AUDIO
TITLE “Rainbow Eyes”
PERFORMER “Blackmore’s Night”
ISRC DEA450810840
INDEX 00 21:28:15
INDEX 01 21:30:65
TRACK 07 AUDIO
TITLE “The Circle”
PERFORMER “Blackmore’s Night”
ISRC DEA450810850
INDEX 00 27:31:59
INDEX 01 27:32:39
TRACK 08 AUDIO
TITLE “Sister Gypsy”
PERFORMER “Blackmore’s Night”
ISRC DEA450810860
INDEX 00 32:18:57
INDEX 01 32:21:15
TRACK 09 AUDIO
TITLE “Can’t Help Falling In Love”
PERFORMER “Blackmore’s Night”
ISRC DEA450810870
INDEX 00 35:39:63
INDEX 01 35:42:45
TRACK 10 AUDIO
TITLE “The Peasant’s Promise”
PERFORMER “Blackmore’s Night”
ISRC DEA450810880
INDEX 00 38:32:41
INDEX 01 38:34:15
TRACK 11 AUDIO
TITLE “Far Far Away”
PERFORMER “Blackmore’s Night”
ISRC DEA450810890
INDEX 00 44:05:65
INDEX 01 44:07:41
TRACK 12 AUDIO
TITLE “Empty Words”
PERFORMER “Blackmore’s Night”
ISRC DEA450810900
INDEX 00 47:59:42
INDEX 01 48:01:66


Leave a Reply

Your email address will not be published. Required fields are marked *

This site uses Akismet to reduce spam. Learn how your comment data is processed.