Blackmore’s Night – Past Times With Good Company (Japanese Edition)




Artist: Blackmore’s Night
Year: 2002
Genre: Rock
Notes: Discogs
Add. Notes: Japanese Edition
Cover incl.: Yes
Encoder: FLAC
Bitrate: ~900 kBit/s (44.1 kHz/16 Bit/s)
Log & Cue incl.: Yes
Size: 785 MB
Password: “slam” (without ” “)


All Downloads/Hosters are compatible

Download 1
KatFile.com
Turbobit.net
FileFactory.com
Rapidgator.net
Download 2
KatFile.com
Turbobit.net
FileFactory.com
Rapidgator.net

Tracklist:

1-01 - Shadow Of The Moon - 10:56
1-02 - Play Minstrel Play - 4:34
1-03 - Minstrel Hall - 5:43
1-04 - Past Time With Good 
Company - 7:05
1-05 - Fires At Midnight - 12:29
1-06 - Under A Violet Moon - 5:01
1-07 - Soldier Of Fortune - 4:21
2-01 - 16th Century Greensleeves - 
4:44
2-02 - Beyond The Sunset - 5:28
2-03 - Morning Star - 6:09
2-04 - Home Again - 6:33
2-05 - Renaissance Faire - 5:08
2-06 - I Still Remember - 7:03
2-07 - Durch Den Wald Zum 
Bachhaus - 3:12
2-08 - Writing On The Wall - 6:01
2-09 - Memmingen (Bonus Track For 
Japan Only) - 2:18

EAC-Log, CUE-Sheed & NFO:

Click to open spoiler
Exact Audio Copy V1.0 beta 3 from 29. August 2011

EAC extraction logfile from 14. May 2014, 21:22

Blackmore’s Night / Past Times With Good Company CD1

Used drive : SlimtypeDVD A DS8A5SH Adapter: 0 ID: 1

Read mode : Secure
Utilize accurate stream : Yes
Defeat audio cache : Yes
Make use of C2 pointers : No

Read offset correction : 6
Overread into Lead-In and Lead-Out : No
Fill up missing offset samples with silence : Yes
Delete leading and trailing silent blocks : No
Null samples used in CRC calculations : Yes
Used interface : Native Win32 interface for Win NT & 2000

Used output format : User Defined Encoder
Selected bitrate : 320 kBit/s
Quality : High
Add ID3 tag : No
Command line compressor : C:\Program Files (x86)\Exact Audio Copy\Flac\flac.exe
Additional command line options : -V -8 -T “Date=%year%” -T “Genre=%genre%” %source%

TOC of the extracted CD

Track | Start | Length | Start sector | End sector
———————————————————
1 | 0:00.00 | 10:56.27 | 0 | 49226
2 | 10:56.27 | 4:34.10 | 49227 | 69786
3 | 15:30.37 | 5:43.10 | 69787 | 95521
4 | 21:13.47 | 7:04.45 | 95522 | 127366
5 | 28:18.17 | 12:28.38 | 127367 | 183504
6 | 40:46.55 | 5:01.25 | 183505 | 206104
7 | 45:48.05 | 4:21.37 | 206105 | 225716

Range status and errors

Selected range

Filename D:\My Music\Blackmore’s Night – 2002 Past Times With Good Company\CD1\Blackmore’s Night – Past Times With Good Company CD1.wav

Peak level 98.9 %
Extraction speed 1.7 X
Range quality 99.9 %
Test CRC 2D33C1CB
Copy CRC 2D33C1CB
Copy OK

No errors occurred

AccurateRip summary

Track 1 accurately ripped (confidence 5) [7E14ECD9] (AR v2)
Track 2 accurately ripped (confidence 5) [2CFAA1A3] (AR v2)
Track 3 accurately ripped (confidence 5) [1AE58401] (AR v2)
Track 4 accurately ripped (confidence 5) [4D2F20B8] (AR v2)
Track 5 accurately ripped (confidence 5) [46D7F561] (AR v2)
Track 6 accurately ripped (confidence 5) [7DF5BA17] (AR v2)
Track 7 accurately ripped (confidence 5) [A7B72A51] (AR v2)

All tracks accurately ripped

End of status report

==== Log checksum 19092114AEE3E73D96B669000063F5518065995C4C63AB4874F95656BF8F1896 ====

Exact Audio Copy V1.0 beta 3 from 29. August 2011

EAC extraction logfile from 14. May 2014, 22:22

Blackmore’s Night / Past Times With Good Company CD2

Used drive : SlimtypeDVD A DS8A5SH Adapter: 0 ID: 1

Read mode : Secure
Utilize accurate stream : Yes
Defeat audio cache : Yes
Make use of C2 pointers : No

Read offset correction : 6
Overread into Lead-In and Lead-Out : No
Fill up missing offset samples with silence : Yes
Delete leading and trailing silent blocks : No
Null samples used in CRC calculations : Yes
Used interface : Native Win32 interface for Win NT & 2000

Used output format : User Defined Encoder
Selected bitrate : 320 kBit/s
Quality : High
Add ID3 tag : No
Command line compressor : C:\Program Files (x86)\Exact Audio Copy\Flac\flac.exe
Additional command line options : -V -8 -T “Date=%year%” -T “Genre=%genre%” %source%

TOC of the extracted CD

Track | Start | Length | Start sector | End sector
———————————————————
1 | 0:00.00 | 4:44.20 | 0 | 21319
2 | 4:44.20 | 5:28.27 | 21320 | 45946
3 | 10:12.47 | 6:09.30 | 45947 | 73651
4 | 16:22.02 | 6:32.38 | 73652 | 103089
5 | 22:54.40 | 5:07.50 | 103090 | 126164
6 | 28:02.15 | 7:03.27 | 126165 | 157916
7 | 35:05.42 | 3:11.55 | 157917 | 172296
8 | 38:17.22 | 6:01.40 | 172297 | 199411
9 | 44:18.62 | 2:18.73 | 199412 | 209834

Range status and errors

Selected range

Filename D:\My Music\Blackmore’s Night – 2002 Past Times With Good Company\CD2\Blackmore’s Night – Past Times With Good Company CD2.wav

Peak level 98.9 %
Extraction speed 1.7 X
Range quality 100.0 %
Test CRC 6B62E6EC
Copy CRC 6B62E6EC
Copy OK

No errors occurred

AccurateRip summary

Track 1 accurately ripped (confidence 5) [3F5504B6] (AR v2)
Track 2 accurately ripped (confidence 5) [D96DA86F] (AR v2)
Track 3 accurately ripped (confidence 5) [8952356F] (AR v2)
Track 4 accurately ripped (confidence 5) [375D56A9] (AR v2)
Track 5 accurately ripped (confidence 5) [52A74828] (AR v2)
Track 6 accurately ripped (confidence 5) [F8E5878F] (AR v2)
Track 7 accurately ripped (confidence 5) [9274CCA0] (AR v2)
Track 8 accurately ripped (confidence 5) [B8C9DA53] (AR v2)
Track 9 accurately ripped (confidence 5) [4EE3B4C8] (AR v2)

All tracks accurately ripped

End of status report

==== Log checksum 04C94CC9DE551D9A2568CA552F159091D53F4629F37BFF0C989B2CE269F12364 ====

REM GENRE “Folk Rock”
REM DATE 2002
REM DISCID 5A0BC107
REM COMMENT “ExactAudioCopy v1.0b3”
CATALOG 0000000000000
PERFORMER “Blackmore’s Night”
TITLE “Past Times With Good Company CD1”
FILE “Blackmore’s Night – Past Times With Good Company CD1.flac” WAVE
TRACK 01 AUDIO
TITLE “Shadow Of The Moon”
PERFORMER “Blackmore’s Night”
INDEX 01 00:00:00
TRACK 02 AUDIO
TITLE “Play Minstrel Play”
PERFORMER “Blackmore’s Night”
INDEX 01 10:56:27
TRACK 03 AUDIO
TITLE “Minstrel Hall”
PERFORMER “Blackmore’s Night”
INDEX 01 15:30:37
TRACK 04 AUDIO
TITLE “Past Time With Good Company”
PERFORMER “Blackmore’s Night”
INDEX 01 21:13:47
TRACK 05 AUDIO
TITLE “Fires At Midnight”
PERFORMER “Blackmore’s Night”
INDEX 01 28:18:17
TRACK 06 AUDIO
TITLE “Under A Violet Moon”
PERFORMER “Blackmore’s Night”
INDEX 01 40:46:55
TRACK 07 AUDIO
TITLE “Soldier Of Fortune”
PERFORMER “Blackmore’s Night”
INDEX 01 45:48:05

REM GENRE “Folk Rock”
REM DATE 2002
REM DISCID 840AED09
REM COMMENT “ExactAudioCopy v1.0b3”
CATALOG 0000000000000
PERFORMER “Blackmore’s Night”
TITLE “Past Times With Good Company CD2”
FILE “Blackmore’s Night – Past Times With Good Company CD2.flac” WAVE
TRACK 01 AUDIO
TITLE “16th Century Greensleeves”
PERFORMER “Blackmore’s Night”
INDEX 01 00:00:00
TRACK 02 AUDIO
TITLE “Beyond The Sunset”
PERFORMER “Blackmore’s Night”
INDEX 01 04:44:20
TRACK 03 AUDIO
TITLE “Morning Star”
PERFORMER “Blackmore’s Night”
INDEX 01 10:12:47
TRACK 04 AUDIO
TITLE “Home Again”
PERFORMER “Blackmore’s Night”
INDEX 01 16:22:02
TRACK 05 AUDIO
TITLE “Renaissance Faire”
PERFORMER “Blackmore’s Night”
INDEX 01 22:54:40
TRACK 06 AUDIO
TITLE “I Still Remember”
PERFORMER “Blackmore’s Night”
INDEX 01 28:02:15
TRACK 07 AUDIO
TITLE “Durch Den Wald Zum Bach Haus”
PERFORMER “Blackmore’s Night”
INDEX 01 35:05:42
TRACK 08 AUDIO
TITLE “Writing On The Wall”
PERFORMER “Blackmore’s Night”
INDEX 01 38:17:22
TRACK 09 AUDIO
TITLE “Memmingen (bonus track)”
PERFORMER “Blackmore’s Night”
INDEX 00 44:16:47
INDEX 01 44:18:62


Leave a Reply

Your email address will not be published. Required fields are marked *

This site uses Akismet to reduce spam. Learn how your comment data is processed.