Blackmore’s Night – Ghost Of A Rose (Japanese Edition)




Artist: Blackmore’s Night
Year: 2003
Genre: Rock
Notes: Discogs
Add. Notes: Japanese Edition
Cover incl.: Yes
Encoder: FLAC
Bitrate: ~900 kBit/s (44.1 kHz/16 Bit/s)
Log & Cue incl.: Yes
Size: 564 MB
Password: “slam” (without ” “)


All Downloads/Hosters are compatible

Download 1
KatFile.com
Turbobit.net
FileFactory.com
Rapidgator.net
Download 2
KatFile.com
Turbobit.net
FileFactory.com
Rapidgator.net

Tracklist:

1 Way To Mandalay 6:24
2 3 Black Crows 3:37
3 Diamonds And Rust 4:50
4 Cartouche 3:42
5 Queen For A Day (Part 1) 3:05
6 Queen For A Day (Part 2) 1:30
7 Ivory Tower 4:21
8 Nur Eine Minute 1:03
9 Ghost Of A Rose 5:41
10 Mr. Peagram's Morris And Sword 1:56
11 Loreley 3:30
12 Where Are We Going From Here 3:59
13 Rainbow Blues 4:25
14 All For One 5:30
15 Dandelion Wine 5:39

Bonus For Japan Only
16 Just One Minute

EAC-Log, CUE-Sheed & NFO:

Click to open spoiler
Exact Audio Copy V1.0 beta 3 from 29. August 2011

EAC extraction logfile from 14. May 2014, 23:15

Blackmore’s Night / Ghost Of A Rose

Used drive : SlimtypeDVD A DS8A5SH Adapter: 0 ID: 1

Read mode : Secure
Utilize accurate stream : Yes
Defeat audio cache : Yes
Make use of C2 pointers : No

Read offset correction : 6
Overread into Lead-In and Lead-Out : No
Fill up missing offset samples with silence : Yes
Delete leading and trailing silent blocks : No
Null samples used in CRC calculations : Yes
Used interface : Native Win32 interface for Win NT & 2000

Used output format : User Defined Encoder
Selected bitrate : 320 kBit/s
Quality : High
Add ID3 tag : No
Command line compressor : C:\Program Files (x86)\Exact Audio Copy\Flac\flac.exe
Additional command line options : -V -8 -T “Date=%year%” -T “Genre=%genre%” %source%

TOC of the extracted CD

Track | Start | Length | Start sector | End sector
———————————————————
1 | 0:00.00 | 6:25.20 | 0 | 28894
2 | 6:25.20 | 3:43.28 | 28895 | 45647
3 | 10:08.48 | 4:54.22 | 45648 | 67719
4 | 15:02.70 | 3:48.38 | 67720 | 84857
5 | 18:51.33 | 3:05.14 | 84858 | 98746
6 | 21:56.47 | 1:36.03 | 98747 | 105949
7 | 23:32.50 | 4:24.18 | 105950 | 125767
8 | 27:56.68 | 1:07.42 | 125768 | 130834
9 | 29:04.35 | 5:45.25 | 130835 | 156734
10 | 34:49.60 | 2:01.25 | 156735 | 165834
11 | 36:51.10 | 3:36.20 | 165835 | 182054
12 | 40:27.30 | 4:04.58 | 182055 | 200412
13 | 44:32.13 | 4:30.32 | 200413 | 220694
14 | 49:02.45 | 5:36.08 | 220695 | 245902
15 | 54:38.53 | 5:45.13 | 245903 | 271790
16 | 60:23.66 | 1:01.35 | 271791 | 276400

Range status and errors

Selected range

Filename D:\My Music\Blackmore’s Night – 2003 Ghost Of A Rose\Blackmore’s Night – Ghost Of A Rose.wav

Peak level 98.9 %
Extraction speed 2.0 X
Range quality 100.0 %
Test CRC 56894FA8
Copy CRC 56894FA8
Copy OK

No errors occurred

AccurateRip summary

Track 1 accurately ripped (confidence 7) [9D4F0385] (AR v2)
Track 2 accurately ripped (confidence 7) [25F2F05A] (AR v2)
Track 3 accurately ripped (confidence 7) [D26AF27D] (AR v2)
Track 4 accurately ripped (confidence 7) [800D94CD] (AR v2)
Track 5 accurately ripped (confidence 7) [EB798878] (AR v2)
Track 6 accurately ripped (confidence 7) [1293BF5B] (AR v2)
Track 7 accurately ripped (confidence 7) [D899CC1B] (AR v2)
Track 8 accurately ripped (confidence 7) [06649155] (AR v2)
Track 9 accurately ripped (confidence 7) [247B83CC] (AR v2)
Track 10 accurately ripped (confidence 7) [06901890] (AR v2)
Track 11 accurately ripped (confidence 7) [E915BDD1] (AR v2)
Track 12 accurately ripped (confidence 7) [9443D83A] (AR v2)
Track 13 accurately ripped (confidence 7) [4941D4EC] (AR v2)
Track 14 accurately ripped (confidence 7) [247C81E8] (AR v2)
Track 15 accurately ripped (confidence 7) [C9C6E966] (AR v2)
Track 16 accurately ripped (confidence 7) [EA095352] (AR v2)

All tracks accurately ripped

End of status report

==== Log checksum 0DA4C1212AF84C6D8B72463B48EA9322E624CDB8A0F9B6C34064A6D6411EBFDF ====

REM GENRE “Folk Rock”
REM DATE 2003
REM DISCID D70E6510
REM COMMENT “ExactAudioCopy v1.0b3”
PERFORMER “Blackmore’s Night”
TITLE “Ghost Of A Rose”
FILE “Blackmore’s Night – Ghost Of A Rose.flac” WAVE
TRACK 01 AUDIO
TITLE “Way To Mandalay”
PERFORMER “Blackmore’s Night”
ISRC DEA450302170
INDEX 01 00:00:00
TRACK 02 AUDIO
TITLE “3 Black Crows”
PERFORMER “Blackmore’s Night”
ISRC DEA450302180
INDEX 00 06:23:70
INDEX 01 06:25:20
TRACK 03 AUDIO
TITLE “Diamonds And Rust”
PERFORMER “Blackmore’s Night”
ISRC DEA450302190
INDEX 00 10:02:65
INDEX 01 10:08:48
TRACK 04 AUDIO
TITLE “Cartouche”
PERFORMER “Blackmore’s Night”
ISRC DEA450302200
INDEX 00 14:59:10
INDEX 01 15:02:70
TRACK 05 AUDIO
TITLE “Queen For A Day (Part 1)”
PERFORMER “Blackmore’s Night”
ISRC DEA450302210
INDEX 00 18:45:30
INDEX 01 18:51:33
TRACK 06 AUDIO
TITLE “Queen For A Day (Part 2) (instrumental)”
PERFORMER “Blackmore’s Night”
ISRC DEA450302220
INDEX 01 21:56:47
TRACK 07 AUDIO
TITLE “Ivory Tower”
PERFORMER “Blackmore’s Night”
ISRC DEA450302230
INDEX 00 23:27:07
INDEX 01 23:32:50
TRACK 08 AUDIO
TITLE “Nur Eine Minute”
PERFORMER “Blackmore’s Night”
ISRC DEA450302240
INDEX 00 27:54:07
INDEX 01 27:56:68
TRACK 09 AUDIO
TITLE “Ghost Of A Rose”
PERFORMER “Blackmore’s Night”
ISRC DEA450302250
INDEX 00 28:59:62
INDEX 01 29:04:35
TRACK 10 AUDIO
TITLE “Mr Peagram’s Morris And Sword”
PERFORMER “Blackmore’s Night”
ISRC DEA450302260
INDEX 00 34:45:70
INDEX 01 34:49:60
TRACK 11 AUDIO
TITLE “Loreley”
PERFORMER “Blackmore’s Night”
ISRC DEA450302270
INDEX 00 36:46:72
INDEX 01 36:51:10
TRACK 12 AUDIO
TITLE “Where Aer We Going From Here”
PERFORMER “Blackmore’s Night”
ISRC DEA450302280
INDEX 00 40:22:32
INDEX 01 40:27:30
TRACK 13 AUDIO
TITLE “Rainbow Blues”
PERFORMER “Blackmore’s Night”
ISRC DEA450302290
INDEX 00 44:27:35
INDEX 01 44:32:13
TRACK 14 AUDIO
TITLE “All For One”
PERFORMER “Blackmore’s Night”
ISRC DEA450302300
INDEX 00 48:57:62
INDEX 01 49:02:45
TRACK 15 AUDIO
TITLE “Dandelion Wine”
PERFORMER “Blackmore’s Night”
ISRC DEA450302310
INDEX 00 54:33:62
INDEX 01 54:38:53
TRACK 16 AUDIO
TITLE “Just One Minute”
PERFORMER “Blackmore’s Night”
INDEX 00 60:18:16
INDEX 01 60:23:66


Leave a Reply

Your email address will not be published. Required fields are marked *

Enter the text from the image below
 

This site uses Akismet to reduce spam. Learn how your comment data is processed.