Blackmore’s Night – Fires At Midnight (Japanese Edition)




Artist: Blackmore’s Night
Year: 2001
Genre: Rock
Notes: Discogs
Add. Notes: Japanese Edition
Cover incl.: Yes
Encoder: FLAC
Bitrate: ~900 kBit/s (44.1 kHz/16 Bit/s)
Log & Cue incl.: Yes
Size: 610 MB
Password: “slam” (without ” “)


All Downloads/Hosters are compatible

Download 1
KatFile.com
Turbobit.net
FileFactory.com
Rapidgator.net
Download 2
KatFile.com
Turbobit.net
FileFactory.com
Rapidgator.net

Tracklist:

1 - Written In The Stars - 4:49
2 - The Times They Are A Changin' - 
3:33
3 - I Still Remember - 5:42
4 - Home Again - 5:27
5 - Crowning Of The King - 4:31
6 - Fayre Thee Well - 2:08
7 - Fires At Midnight - 7:36
8 - Hanging Tree - 3:47
9 - Storm - 6:11
10 - Mid Winter's Night - 4:30
11 - All Because Of You - 3:36
12 - Waiting Just For You - 3:16
13 - Praetorius (Courante) - 1:57
14 - Benzai-Ten - 3:52
15 - Sake Of Song - 3:10
16 - Village On The Sand - 5:04
17 - Again Someday - 1:42

EAC-Log, CUE-Sheed & NFO:

Click to open spoiler
Exact Audio Copy V1.0 beta 3 from 29. August 2011

EAC extraction logfile from 13. May 2014, 7:32

Blackmore’s Night / Fires At Midnight

Used drive : SlimtypeDVD A DS8A5SH Adapter: 0 ID: 1

Read mode : Secure
Utilize accurate stream : Yes
Defeat audio cache : Yes
Make use of C2 pointers : No

Read offset correction : 6
Overread into Lead-In and Lead-Out : No
Fill up missing offset samples with silence : Yes
Delete leading and trailing silent blocks : No
Null samples used in CRC calculations : Yes
Used interface : Native Win32 interface for Win NT & 2000

Used output format : User Defined Encoder
Selected bitrate : 320 kBit/s
Quality : High
Add ID3 tag : No
Command line compressor : C:\Program Files (x86)\Exact Audio Copy\Flac\flac.exe
Additional command line options : -V -8 -T “Date=%year%” -T “Genre=%genre%” %source%

TOC of the extracted CD

Track | Start | Length | Start sector | End sector
———————————————————
1 | 0:00.00 | 4:49.60 | 0 | 21734
2 | 4:49.60 | 3:33.05 | 21735 | 37714
3 | 8:22.65 | 5:42.15 | 37715 | 63379
4 | 14:05.05 | 5:27.60 | 63380 | 87964
5 | 19:32.65 | 4:31.70 | 87965 | 108359
6 | 24:04.60 | 2:08.00 | 108360 | 117959
7 | 26:12.60 | 7:36.02 | 117960 | 152161
8 | 33:48.62 | 3:46.70 | 152162 | 169181
9 | 37:35.57 | 6:11.40 | 169182 | 197046
10 | 43:47.22 | 4:30.15 | 197047 | 217311
11 | 48:17.37 | 3:36.55 | 217312 | 233566
12 | 51:54.17 | 3:16.70 | 233567 | 248336
13 | 55:11.12 | 1:57.20 | 248337 | 257131
14 | 57:08.32 | 3:51.70 | 257132 | 274526
15 | 61:00.27 | 3:13.05 | 274527 | 289006
16 | 64:13.32 | 5:04.15 | 289007 | 311821
17 | 69:17.47 | 1:39.20 | 311822 | 319266

Range status and errors

Selected range

Filename D:\My Music\Blackmore’s Night – 2001 Fires At Midnight\Blackmore’s Night – Fires At Midnight.wav

Peak level 100.0 %
Extraction speed 2.0 X
Range quality 99.9 %
Test CRC 69B73C8E
Copy CRC 69B73C8E
Copy OK

No errors occurred

AccurateRip summary

Track 1 accurately ripped (confidence 6) [4537944D] (AR v2)
Track 2 accurately ripped (confidence 6) [6CE9CB81] (AR v2)
Track 3 accurately ripped (confidence 6) [60D87587] (AR v2)
Track 4 accurately ripped (confidence 6) [9A492B13] (AR v2)
Track 5 accurately ripped (confidence 6) [ED172EFF] (AR v2)
Track 6 accurately ripped (confidence 6) [0539EE79] (AR v2)
Track 7 accurately ripped (confidence 6) [D876E924] (AR v2)
Track 8 accurately ripped (confidence 6) [F802CA72] (AR v2)
Track 9 accurately ripped (confidence 6) [0DA14464] (AR v2)
Track 10 accurately ripped (confidence 6) [74D30314] (AR v2)
Track 11 accurately ripped (confidence 6) [F7F50444] (AR v2)
Track 12 accurately ripped (confidence 6) [D2CCABE9] (AR v2)
Track 13 accurately ripped (confidence 6) [7B1CDF4A] (AR v2)
Track 14 accurately ripped (confidence 6) [02073222] (AR v2)
Track 15 accurately ripped (confidence 6) [3AD7C0FD] (AR v2)
Track 16 accurately ripped (confidence 6) [A7AF51B3] (AR v2)
Track 17 accurately ripped (confidence 6) [2FE8F44A] (AR v2)

All tracks accurately ripped

End of status report

==== Log checksum 3B118965A9159A0B5A461FC0301EFE1DE6FEE094F5EBBB1CFB2D135373DBBBFC ====

REM GENRE “Folk Rock”
REM DATE 2001
REM DISCID F310A011
REM COMMENT “ExactAudioCopy v1.0b3”
PERFORMER “Blackmore’s Night”
TITLE “Fires At Midnight”
FILE “Blackmore’s Night – Fires At Midnight.flac” WAVE
TRACK 01 AUDIO
TITLE “Written In The Stars”
PERFORMER “Blackmore’s Night”
INDEX 01 00:00:00
TRACK 02 AUDIO
TITLE “The Times They Area A Changin'”
PERFORMER “Blackmore’s Night”
INDEX 00 04:47:02
INDEX 01 04:49:60
TRACK 03 AUDIO
TITLE “I Still Remember”
PERFORMER “Blackmore’s Night”
INDEX 00 08:20:20
INDEX 01 08:22:65
TRACK 04 AUDIO
TITLE “Home Again”
PERFORMER “Blackmore’s Night”
INDEX 00 14:02:40
INDEX 01 14:05:05
TRACK 05 AUDIO
TITLE “Crowning Of The King”
PERFORMER “Blackmore’s Night”
INDEX 00 19:30:27
INDEX 01 19:32:65
TRACK 06 AUDIO
TITLE “Fayre Thee Well”
PERFORMER “Blackmore’s Night”
INDEX 00 24:02:12
INDEX 01 24:04:60
TRACK 07 AUDIO
TITLE “Fires At Midnight”
PERFORMER “Blackmore’s Night”
INDEX 00 26:10:12
INDEX 01 26:12:60
TRACK 08 AUDIO
TITLE “Hanging Tree”
PERFORMER “Blackmore’s Night”
INDEX 00 33:46:17
INDEX 01 33:48:62
TRACK 09 AUDIO
TITLE “The Storm”
PERFORMER “Blackmore’s Night”
INDEX 00 37:33:12
INDEX 01 37:35:57
TRACK 10 AUDIO
TITLE “Mid-Winter’s Night”
PERFORMER “Blackmore’s Night”
INDEX 00 43:44:47
INDEX 01 43:47:22
TRACK 11 AUDIO
TITLE “All Because Of You”
PERFORMER “Blackmore’s Night”
INDEX 00 48:14:57
INDEX 01 48:17:37
TRACK 12 AUDIO
TITLE “Waiting Just For You”
PERFORMER “Blackmore’s Night”
INDEX 00 51:51:45
INDEX 01 51:54:17
TRACK 13 AUDIO
TITLE “Praetorius (Courante)”
PERFORMER “Blackmore’s Night”
INDEX 00 55:08:45
INDEX 01 55:11:12
TRACK 14 AUDIO
TITLE “Benzai-ten”
PERFORMER “Blackmore’s Night”
INDEX 00 57:05:65
INDEX 01 57:08:32
TRACK 15 AUDIO
TITLE “Sake Of Song”
PERFORMER “Blackmore’s Night”
INDEX 00 60:57:47
INDEX 01 61:00:27
TRACK 16 AUDIO
TITLE “Village On The Sand”
PERFORMER “Blackmore’s Night”
INDEX 00 64:10:67
INDEX 01 64:13:32
TRACK 17 AUDIO
TITLE “Again Someday”
PERFORMER “Blackmore’s Night”
INDEX 00 69:08:05
INDEX 01 69:17:47


Leave a Reply

Your email address will not be published. Required fields are marked *

This site uses Akismet to reduce spam. Learn how your comment data is processed.