Blackmore’s Night – Dancer And The Moon (Japanese Deluxe Edition)




No Cover available

Artist: Blackmore’s Night
Year: 2013
Genre: Rock
Notes: Discogs
Add. Notes: Japanese Deluxe Edition
Watch Songs on: YouTube
Cover incl.: Yes
Encoder: FLAC
Bitrate: ~900 kBit/s (44.1 kHz/16 Bit/s)
Log & Cue incl.: Yes/Yes
Size: 478 MB
Password: “slam” (without ” “)


All Downloads/Hosters are compatible

Download 1
KatFile.com
Turbobit.net
FileFactory.com
Rapidgator.net
Download 2
KatFile.com
Turbobit.net
FileFactory.com
Rapidgator.net

Tracklist:

1 I Think It's Going To Rain Today 
2 Troika 
3 The Last Leaf 
4 Lady In Black 
5 Minstrels In The Hall 
6 The Temple Of The King 
7 Dancer And The Moon 
8 Galliard 
9 The Ashgrove 
10 Somewhere Over The Sea (The Moon Is Shining) 
11 The Moon Is Shining (Somewhere Over The Sea) 
12 The Spinner's Tale 
13 Carry On... Jon

EAC-Log, CUE-Sheed & NFO:

Click to open spoiler
Exact Audio Copy V1.0 beta 3 from 29. August 2011

EAC extraction logfile from 18. May 2014, 22:31

Blackmore’s Night / Dancer And The Moon

Used drive : SlimtypeDVD A DS8A5SH Adapter: 0 ID: 1

Read mode : Secure
Utilize accurate stream : Yes
Defeat audio cache : Yes
Make use of C2 pointers : No

Read offset correction : 6
Overread into Lead-In and Lead-Out : No
Fill up missing offset samples with silence : Yes
Delete leading and trailing silent blocks : No
Null samples used in CRC calculations : Yes
Used interface : Native Win32 interface
for Win NT & 2000

Used output format : User Defined Encoder
Selected bitrate : 320 kBit/s
Quality : High
Add ID3 tag : No
Command line compressor : C:\Program Files
(x86)\Exact Audio Copy\Flac\flac.exe
Additional command line options : -V -8 -T “Date=%
year%” -T “Genre=%genre%” %source%

TOC of the extracted CD

Track | Start | Length | Start sector | End sector
———————————————————
1 | 0:00.00 | 3:54.39 | 0 | 17588
2 | 3:54.39 | 3:30.47 | 17589 | 33385
3 | 7:25.11 | 4:05.03 | 33386 | 51763
4 | 11:30.14 | 5:48.22 | 51764 | 77885
5 | 17:18.36 | 2:38.35 | 77886 | 89770
6 | 19:56.71 | 4:26.51 | 89771 | 109771
7 | 24:23.47 | 4:55.09 | 109772 | 131905
8 | 29:18.56 | 2:00.11 | 131906 | 140916
9 | 31:18.67 | 2:21.59 | 140917 | 151550
10 | 33:40.51 | 4:07.04 | 151551 | 170079
11 | 37:47.55 | 6:19.20 | 170080 | 198524
12 | 44:07.00 | 3:30.34 | 198525 | 214308
13 | 47:37.34 | 5:37.13 | 214309 | 239596

Range status and errors

Selected range

Filename D:\My Music\Blackmore’s Night – 2013 Dancer
And The Moon\Blackmore’s Night – Dancer And The
Moon.wav

Peak level 98.8 %
Extraction speed 1.8 X
Range quality 100.0 %
Test CRC 52F1A660
Copy CRC 52F1A660
Copy OK

No errors occurred

AccurateRip summary

Track 1 cannot be verified as accurate (confidence 61)
[F5A28F22], AccurateRip returned [86E9E158] (AR v2)
Track 2 cannot be verified as accurate (confidence 61)
[AC0AF57E], AccurateRip returned [520206F2] (AR v2)
Track 3 cannot be verified as accurate (confidence 59)
[1E82BA03], AccurateRip returned [86AF9B66] (AR v2)
Track 4 cannot be verified as accurate (confidence 60)
[9F9B9694], AccurateRip returned [153CADD6] (AR v2)
Track 5 cannot be verified as accurate (confidence 60)
[BB7B8E0A], AccurateRip returned [3B9C196B] (AR v2)
Track 6 cannot be verified as accurate (confidence 61)
[DEA50CBE], AccurateRip returned [5BBD6A93] (AR v2)
Track 7 cannot be verified as accurate (confidence 60)
[563F5E47], AccurateRip returned [B3C224CC] (AR v2)
Track 8 cannot be verified as accurate (confidence 60)
[08A1600C], AccurateRip returned [AD21C7EB] (AR v2)
Track 9 cannot be verified as accurate (confidence 60)
[B4B4B5FF], AccurateRip returned [515FB6D7] (AR v2)
Track 10 cannot be verified as accurate (confidence 60)
[F12EB0D1], AccurateRip returned [6D57C7DF] (AR v2)
Track 11 cannot be verified as accurate (confidence 61)
[363510DF], AccurateRip returned [58BA7F08] (AR v2)
Track 12 cannot be verified as accurate (confidence 61)
[E527A52E], AccurateRip returned [568ACAD9] (AR v2)
Track 13 cannot be verified as accurate (confidence 62)
[8DB1C440], AccurateRip returned [35EDE833] (AR v2)

No tracks could be verified as accurate
You may have a different pressing from the one(s) in the
database

End of status report

==== Log checksum
1856D94EE414B9C3F5AD797622B501157CF1DCB744BD
30CC36F28D1C70B723A6 ====

REM GENRE “Folk Rock”
REM DATE 2013
REM DISCID BA0C7A0D
REM COMMENT “ExactAudioCopy v1.0b3”
PERFORMER “Blackmore’s Night”
TITLE “Dancer And The Moon”
FILE “Blackmore’s Night – Dancer And The Moon.flac”
WAVE
TRACK 01 AUDIO
TITLE “I Think It’s Going To Rain Today”
PERFORMER “Blackmore’s Night”
INDEX 01 00:00:00
TRACK 02 AUDIO
TITLE “Troika”
PERFORMER “Blackmore’s Night”
INDEX 00 03:52:41
INDEX 01 03:54:39
TRACK 03 AUDIO
TITLE “The Last Leaf”
PERFORMER “Blackmore’s Night”
INDEX 00 07:23:12
INDEX 01 07:25:11
TRACK 04 AUDIO
TITLE “Lady In Black”
PERFORMER “Blackmore’s Night”
INDEX 00 11:27:59
INDEX 01 11:30:14
TRACK 05 AUDIO
TITLE “Minstrels In The Hall”
PERFORMER “Blackmore’s Night”
INDEX 00 17:16:66
INDEX 01 17:18:36
TRACK 06 AUDIO
TITLE “Temple Of The King”
PERFORMER “Blackmore’s Night”
INDEX 00 19:54:35
INDEX 01 19:56:71
TRACK 07 AUDIO
TITLE “Dancer And The Moon”
PERFORMER “Blackmore’s Night”
INDEX 00 24:21:60
INDEX 01 24:23:47
TRACK 08 AUDIO
TITLE “Galliard”
PERFORMER “Blackmore’s Night”
INDEX 00 29:15:53
INDEX 01 29:18:56
TRACK 09 AUDIO
TITLE “The Ashgrove”
PERFORMER “Blackmore’s Night”
INDEX 00 31:16:58
INDEX 01 31:18:67
TRACK 10 AUDIO
TITLE “Somewhere Over The Sea (The Moon Is
Shining)”
PERFORMER “Blackmore’s Night”
INDEX 00 33:38:50
INDEX 01 33:40:51
TRACK 11 AUDIO
TITLE “The Moon Is Shining (Somewhere Over The
Sea)”
PERFORMER “Blackmore’s Night”
INDEX 00 37:46:19
INDEX 01 37:47:55
TRACK 12 AUDIO
TITLE “The Spinner’s Tale”
PERFORMER “Blackmore’s Night”
INDEX 00 44:04:57
INDEX 01 44:07:00
TRACK 13 AUDIO
TITLE “Carry On… Jon”
PERFORMER “Blackmore’s Night”
INDEX 00 47:34:54
INDEX 01 47:37:34


Leave a Reply

Your email address will not be published. Required fields are marked *

Enter the text from the image below
 

This site uses Akismet to reduce spam. Learn how your comment data is processed.