Blackmore’s Night – Autumn Sky (Japanese Edition)




No Cover available

Artist: Blackmore’s Night
Year: 2010
Genre: Rock
Notes: Discogs
Add. Notes: Japanese Edition
Watch Songs at: YouTube
Cover incl.: Yes
Encoder: FLAC
Bitrate: ~900 kBit/s (44.1 kHz/16 Bit/s)
Log & Cue incl.: Yes/Yes
Size: 545,8 MB
Password: “slam” (without ” “)


All Downloads/Hosters are compatible

Download 1
KatFile.com
Turbobit.net
FileFactory.com
Rapidgator.net
Download 2
KatFile.com
Turbobit.net
FileFactory.com
Rapidgator.net

Tracklist:

1 Highland 5:49
2 Vagabond (Make A Princess Of Me) 5:23
3 Journeyman 5:41
4 Believe In Me 4:25
5 Sake Of The Song 2:46
6 Song And Dance (Pt II) 2:03
7 Celluloid Heroes 5:27
8 Keeper Of The Flame 4:42
9 Night At Eggersberg 2:15
10 Strawberry Girl 4:05
11 All The Fun Of The Fayre 3:55
12 Darkness 3:21
13 Dance Of The Darkness 3:35
14 Health To The Company 4:19
15 Barbara Allen 3:39

Bonus Track 
16 Gottlische Devise 3:37

EAC-Log, CUE-Sheed & NFO:

Click to open spoiler
Exact Audio Copy V1.0 beta 3 from 29. August 2011

EAC extraction logfile from 18. May 2014, 23:41

Blackmore’s Night / Autumn Sky

Used drive : SlimtypeDVD A DS8A5SH Adapter: 0 ID: 1

Read mode : Secure
Utilize accurate stream : Yes
Defeat audio cache : Yes
Make use of C2 pointers : No

Read offset correction : 6
Overread into Lead-In and Lead-Out : No
Fill up missing offset samples with silence : Yes
Delete leading and trailing silent blocks : No
Null samples used in CRC calculations : Yes
Used interface : Native Win32 interface for Win NT & 2000

Used output format : User Defined Encoder
Selected bitrate : 320 kBit/s
Quality : High
Add ID3 tag : No
Command line compressor : C:\Program Files (x86)\Exact Audio Copy\Flac\flac.exe
Additional command line options : -V -8 -T “Date=%year%” -T “Genre=%genre%” %source%

TOC of the extracted CD

Track | Start | Length | Start sector | End sector
———————————————————
1 | 0:00.00 | 5:49.13 | 0 | 26187
2 | 5:49.13 | 5:23.19 | 26188 | 50431
3 | 11:12.32 | 5:41.23 | 50432 | 76029
4 | 16:53.55 | 4:25.49 | 76030 | 95953
5 | 21:19.29 | 2:46.71 | 95954 | 108474
6 | 24:06.25 | 2:03.09 | 108475 | 117708
7 | 26:09.34 | 5:27.44 | 117709 | 142277
8 | 31:37.03 | 4:42.00 | 142278 | 163427
9 | 36:19.03 | 2:15.23 | 163428 | 173575
10 | 38:34.26 | 4:05.51 | 173576 | 192001
11 | 42:40.02 | 3:55.13 | 192002 | 209639
12 | 46:35.15 | 3:21.04 | 209640 | 224718
13 | 49:56.19 | 3:35.51 | 224719 | 240894
14 | 53:31.70 | 4:19.06 | 240895 | 260325
15 | 57:51.01 | 3:43.18 | 260326 | 277068
16 | 61:34.19 | 3:36.43 | 277069 | 293311

Range status and errors

Selected range

Filename D:\My Music\Blackmore’s Night – 2010 Autumn Sky\Blackmore’s Night – Autumn Sky.wav

Peak level 98.9 %
Extraction speed 2.0 X
Range quality 100.0 %
Test CRC 948C8766
Copy CRC 948C8766
Copy OK

No errors occurred

AccurateRip summary

Track 1 accurately ripped (confidence 7) [EC960E3A] (AR v2)
Track 2 accurately ripped (confidence 7) [3C682446] (AR v2)
Track 3 accurately ripped (confidence 7) [0DE2531F] (AR v2)
Track 4 accurately ripped (confidence 7) [31B80EFF] (AR v2)
Track 5 accurately ripped (confidence 7) [E26A7FBB] (AR v2)
Track 6 accurately ripped (confidence 7) [95647F48] (AR v2)
Track 7 accurately ripped (confidence 7) [33369D19] (AR v2)
Track 8 accurately ripped (confidence 6) [CC7710F8] (AR v2)
Track 9 accurately ripped (confidence 7) [ECF46F13] (AR v2)
Track 10 accurately ripped (confidence 7) [C501BDA1] (AR v2)
Track 11 accurately ripped (confidence 7) [AE6BB25D] (AR v2)
Track 12 accurately ripped (confidence 7) [E9358AD1] (AR v2)
Track 13 accurately ripped (confidence 7) [B881FAF2] (AR v2)
Track 14 accurately ripped (confidence 7) [3D6A6367] (AR v2)
Track 15 accurately ripped (confidence 7) [BFD2A1A0] (AR v2)
Track 16 accurately ripped (confidence 7) [133B88AE] (AR v2)

All tracks accurately ripped

End of status report

==== Log checksum DEA6DFEEC86EF1E7A6DC79238B78D856EC2C4D85E4A08C5DC6B281707E3841DB ====

REM GENRE “Folk Rock”
REM DATE 2010
REM DISCID F70F4610
REM COMMENT “ExactAudioCopy v1.0b3”
PERFORMER “Blackmore’s Night”
TITLE “Autumn Sky”
FILE “Blackmore’s Night – Autumn Sky.flac” WAVE
TRACK 01 AUDIO
TITLE “Highland”
PERFORMER “Blackmore’s Night”
ISRC FIUM71001381
INDEX 01 00:00:00
TRACK 02 AUDIO
TITLE “Vagabond (Make A Princess Of Me)”
PERFORMER “Blackmore’s Night”
ISRC FIUM71001382
INDEX 01 05:49:13
TRACK 03 AUDIO
TITLE “Journeyman”
PERFORMER “Blackmore’s Night”
ISRC FIUM71001383
INDEX 01 11:12:32
TRACK 04 AUDIO
TITLE “Believe In Me”
PERFORMER “Blackmore’s Night”
ISRC FIUM71001384
INDEX 01 16:53:55
TRACK 05 AUDIO
TITLE “Sake Of The Song”
PERFORMER “Blackmore’s Night”
ISRC FIUM71001385
INDEX 01 21:19:29
TRACK 06 AUDIO
TITLE “Song And Dance (Pt II)”
PERFORMER “Blackmore’s Night”
ISRC FIUM71001386
INDEX 01 24:06:25
TRACK 07 AUDIO
TITLE “Celluloid Heroes”
PERFORMER “Blackmore’s Night”
ISRC FIUM71001387
INDEX 01 26:09:34
TRACK 08 AUDIO
TITLE “Keeper Of The Flame”
PERFORMER “Blackmore’s Night”
ISRC FIUM71001388
INDEX 01 31:37:03
TRACK 09 AUDIO
TITLE “Night At Eggersberg”
PERFORMER “Blackmore’s Night”
ISRC FIUM71001389
INDEX 01 36:19:03
TRACK 10 AUDIO
TITLE “Strawberry Girl”
PERFORMER “Blackmore’s Night”
ISRC FIUM71001390
INDEX 01 38:34:26
TRACK 11 AUDIO
TITLE “All The Fun Of The Fayre”
PERFORMER “Blackmore’s Night”
ISRC FIUM71001391
INDEX 01 42:40:02
TRACK 12 AUDIO
TITLE “Darkness”
PERFORMER “Blackmore’s Night”
ISRC FIUM71001392
INDEX 01 46:35:15
TRACK 13 AUDIO
TITLE “Dance Of The Darkness”
PERFORMER “Blackmore’s Night”
ISRC FIUM71001393
INDEX 01 49:56:19
TRACK 14 AUDIO
TITLE “Health To The Company”
PERFORMER “Blackmore’s Night”
ISRC FIUM71001394
INDEX 01 53:31:70
TRACK 15 AUDIO
TITLE “Barbara Allen”
PERFORMER “Blackmore’s Night”
ISRC FIUM71001395
INDEX 01 57:51:01
TRACK 16 AUDIO
TITLE “Gottlische Devise (bonus track)”
PERFORMER “Blackmore’s Night”
ISRC FIUM71001409
INDEX 00 61:30:59
INDEX 01 61:34:19


Leave a Reply

Your email address will not be published. Required fields are marked *

Enter the text from the image below
 

This site uses Akismet to reduce spam. Learn how your comment data is processed.