Blackmore’s Night – All Our Yesterdays (Japanese Edition)




No Cover available

Artist: Blackmore’s Night
Year: 2015
Genre: Rock
Notes: Discogs
Add. Notes: Japanese Edition
Watch Songs on: YouTube
Cover incl.: Yes
Encoder: FLAC
Bitrate: ~900 kBit/s (44.1 kHz/16 Bit/s)
Log & Cue incl.: Yes/Yes
Size: 440 MB
Password: “slam” (without ” “)


All Downloads/Hosters are compatible

Download 1
KatFile.com
Turbobit.net
FileFactory.com
Rapidgator.net
Download 2
KatFile.com
Turbobit.net
FileFactory.com
Rapidgator.net

Tracklist:

1 All Our Yesterdays 4:00
2 Allan Yn N Fan 3:26
3 Darker Shade Of Black 6:03
4 Long Long Time 4:12
5 Moonlight Shadow 4:12
6 I Got You Babe 4:00
7 The Other Side 3:19
8 Queen's Lament 2:07
9 Where Are We Going From Here 5:40
10 Will O' The Wisp 4:15
11 Earth Wind And Sky 3:41
12 Coming Home 3:34

EAC-Log, CUE-Sheed & NFO:

Click to open spoiler
Exact Audio Copy V1.0 beta 3 from 29. August 2011

EAC extraction logfile from 26. September 2015, 21:57

Blackmore’s Night / All Our Yesterdays

Used drive : SlimtypeDVD A DS8A5SH Adapter: 0 ID: 0

Read mode : Secure
Utilize accurate stream : Yes
Defeat audio cache : Yes
Make use of C2 pointers : No

Read offset correction : 6
Overread into Lead-In and Lead-Out : No
Fill up missing offset samples with silence : Yes
Delete leading and trailing silent blocks : No
Null samples used in CRC calculations : Yes
Used interface : Installed external ASPI interface

Used output format : User Defined Encoder
Selected bitrate : 320 kBit/s
Quality : High
Add ID3 tag : No
Command line compressor : C:\Program Files (x86)\Exact Audio Copy\Flac\flac.exe
Additional command line options : -V -8 -T “Date=%year%” -T “Genre=%genre%” %source%

TOC of the extracted CD

Track | Start | Length | Start sector | End sector
———————————————————
1 | 0:00.00 | 4:01.53 | 0 | 18127
2 | 4:01.53 | 3:28.35 | 18128 | 33762
3 | 7:30.13 | 6:04.60 | 33763 | 61122
4 | 13:34.73 | 4:12.44 | 61123 | 80066
5 | 17:47.42 | 4:14.11 | 80067 | 99127
6 | 22:01.53 | 3:59.09 | 99128 | 117061
7 | 26:00.62 | 3:19.70 | 117062 | 132056
8 | 29:20.57 | 2:09.30 | 132057 | 141761
9 | 31:30.12 | 5:43.07 | 141762 | 167493
10 | 37:13.19 | 4:31.08 | 167494 | 187826
11 | 41:44.27 | 3:42.40 | 187827 | 204516
12 | 45:26.67 | 3:34.29 | 204517 | 220595

Range status and errors

Selected range

Filename D:\My Music\Blackmore’s Night – 2015 All Our Yesterdays\Blackmore’s Night – All Our Yesterdays.wav

Peak level 98.8 %
Extraction speed 1.7 X
Range quality 100.0 %
Test CRC 19E103C9
Copy CRC 19E103C9
Copy OK

No errors occurred

AccurateRip summary

Track 1 not present in database
Track 2 not present in database
Track 3 not present in database
Track 4 not present in database
Track 5 not present in database
Track 6 not present in database
Track 7 not present in database
Track 8 not present in database
Track 9 not present in database
Track 10 not present in database
Track 11 not present in database
Track 12 not present in database

None of the tracks are present in the AccurateRip database

End of status report

==== Log checksum 897BD2B852E2DCC4B632CA92DD07FF01E7CE58A8D9D24C537AAA74FE9B9BE912 ====

REM GENRE “Medieval Folk-Rock”
REM DATE 2015
REM DISCID 9C0B7D0C
REM COMMENT “ExactAudioCopy v1.0b3”
PERFORMER “Blackmore’s Night”
TITLE “All Our Yesterdays”
FILE “Blackmore’s Night – All Our Yesterdays.flac” WAVE
TRACK 01 AUDIO
TITLE “All Our Yesterdays”
PERFORMER “Blackmore’s Night”
INDEX 01 00:00:00
TRACK 02 AUDIO
TITLE “Allan Yn N Fan”
PERFORMER “Blackmore’s Night”
INDEX 00 03:59:54
INDEX 01 04:01:53
TRACK 03 AUDIO
TITLE “Darker Shade Of Black”
PERFORMER “Blackmore’s Night”
INDEX 00 07:28:22
INDEX 01 07:30:13
TRACK 04 AUDIO
TITLE “Long Long Time”
PERFORMER “Blackmore’s Night”
INDEX 00 13:32:61
INDEX 01 13:34:73
TRACK 05 AUDIO
TITLE “Moonlight Shadow”
PERFORMER “Blackmore’s Night”
INDEX 00 17:45:44
INDEX 01 17:47:42
TRACK 06 AUDIO
TITLE “I Got You Babe”
PERFORMER “Blackmore’s Night”
INDEX 00 21:59:45
INDEX 01 22:01:53
TRACK 07 AUDIO
TITLE “The Other Side”
PERFORMER “Blackmore’s Night”
INDEX 00 26:00:06
INDEX 01 26:00:62
TRACK 08 AUDIO
TITLE “Queen’s Lament”
PERFORMER “Blackmore’s Night”
INDEX 00 29:18:61
INDEX 01 29:20:57
TRACK 09 AUDIO
TITLE “Where Are We Going From Here”
PERFORMER “Blackmore’s Night”
INDEX 00 31:27:41
INDEX 01 31:30:12
TRACK 10 AUDIO
TITLE “Will O’ The Wisp”
PERFORMER “Blackmore’s Night”
INDEX 00 37:10:69
INDEX 01 37:13:19
TRACK 11 AUDIO
TITLE “Earth Wind And Sky”
PERFORMER “Blackmore’s Night”
INDEX 00 41:42:05
INDEX 01 41:44:27
TRACK 12 AUDIO
TITLE “Coming Home”
PERFORMER “Blackmore’s Night”
INDEX 00 45:24:57
INDEX 01 45:26:67


Leave a Reply

Your email address will not be published. Required fields are marked *

Enter the text from the image below
 

This site uses Akismet to reduce spam. Learn how your comment data is processed.