Blackmore’s Night – All For One – The Finest Collection Of Blackmore’s Night (Japanese Edition)




[Total: 0    Average: 0/5]

Artist: Blackmore’s Night
Year: 2004
Genre: Rock
Notes: Discogs
Add. Notes: Japanese Edition
Cover incl.: Yes
Encoder: FLAC
Bitrate: ~900 kBit/s (44.1 kHz/16 Bit/s)
Log & Cue incl.: Yes
Size: 711,7 MB
Password: “slam” (without ” “)


All Downloads/Hosters are compatible

Download 1
KatFile.com
Turbobit.net
FileFactory.com
Rapidgator.net
Download 2
KatFile.com
Turbobit.net
FileFactory.com
Rapidgator.net

Tracklist:

1 All For One 5:33
2 Written In The Stars 4:49
3 All Because Of You 3:37
4 Writing On The Wall 4:38
5 Under A Violet Moon 4:24
6 Shadow Of The Moon 5:07
7 Gone With The Wind 5:26
8 Way To Mandalay 6:25
9 Spanish Nights (I Remember It Well) 5:24
10 No Second Chance 5:41
11 Rainbow Blues 4:28
12 Waiting Just For You 3:18
13 16th Century Greensleeves 4:38
14 All Because Of You - New Remix 3:30
15 Once In A Million Years (Wenn Aus Liebe Sehnsucht 
Wird) 4:30

EAC-Log, CUE-Sheed & NFO:

Click to open spoiler
Exact Audio Copy V1.0 beta 3 from 29. August 2011

EAC extraction logfile from 15. May 2014, 0:11

Blackmore’s Night / All For One – The Finest Collection Of Blackmore’s Night

Used drive : SlimtypeDVD A DS8A5SH Adapter: 0 ID: 1

Read mode : Secure
Utilize accurate stream : Yes
Defeat audio cache : Yes
Make use of C2 pointers : No

Read offset correction : 6
Overread into Lead-In and Lead-Out : No
Fill up missing offset samples with silence : Yes
Delete leading and trailing silent blocks : No
Null samples used in CRC calculations : Yes
Used interface : Native Win32 interface for Win NT & 2000

Used output format : User Defined Encoder
Selected bitrate : 320 kBit/s
Quality : High
Add ID3 tag : No
Command line compressor : C:\Program Files (x86)\Exact Audio Copy\Flac\flac.exe
Additional command line options : -V -8 -T “Date=%year%” -T “Genre=%genre%” %source%

TOC of the extracted CD

Track | Start | Length | Start sector | End sector
———————————————————
1 | 0:00.00 | 5:33.74 | 0 | 25048
2 | 5:33.74 | 4:49.66 | 25049 | 46789
3 | 10:23.65 | 3:37.31 | 46790 | 63095
4 | 14:01.21 | 4:38.02 | 63096 | 83947
5 | 18:39.23 | 4:24.43 | 83948 | 103790
6 | 23:03.66 | 5:07.62 | 103791 | 126877
7 | 28:11.53 | 5:26.06 | 126878 | 151333
8 | 33:37.59 | 6:25.72 | 151334 | 180280
9 | 40:03.56 | 5:24.17 | 180281 | 204597
10 | 45:27.73 | 5:41.19 | 204598 | 230191
11 | 51:09.17 | 4:28.59 | 230192 | 250350
12 | 55:38.01 | 3:18.09 | 250351 | 265209
13 | 58:56.10 | 4:38.58 | 265210 | 286117
14 | 63:34.68 | 3:30.14 | 286118 | 301881
15 | 67:05.07 | 4:30.40 | 301882 | 322171
16 | 74:07.47 | 3:33.10 | 333572 | 349556

Range status and errors

Selected range

Filename D:\My Music\Blackmore’s Night – 2004 All For One – The Finest Collection Of Blackmore’s Night\Blackmore’s Night – All For One – The Finest Collection Of Blackmore’s Night.wav

Peak level 100.0 %
Extraction speed 3.4 X
Range quality 100.0 %
Test CRC 7FB3C15E
Copy CRC 7FB3C15E
Copy OK

No errors occurred

AccurateRip summary

Track 1 accurately ripped (confidence 3) [05003E6E] (AR v2)
Track 2 accurately ripped (confidence 3) [31A9FD11] (AR v2)
Track 3 accurately ripped (confidence 3) [5B91CBC3] (AR v2)
Track 4 accurately ripped (confidence 3) [88FC3A8B] (AR v2)
Track 5 accurately ripped (confidence 3) [232361FD] (AR v2)
Track 6 accurately ripped (confidence 3) [2A1C980E] (AR v2)
Track 7 accurately ripped (confidence 3) [AD93B86C] (AR v2)
Track 8 accurately ripped (confidence 3) [EE3FDA85] (AR v2)
Track 9 accurately ripped (confidence 3) [20B0ADA1] (AR v2)
Track 10 accurately ripped (confidence 3) [CD22DD88] (AR v2)
Track 11 accurately ripped (confidence 3) [19E78B1F] (AR v2)
Track 12 accurately ripped (confidence 3) [3A39630E] (AR v2)
Track 13 accurately ripped (confidence 3) [9E9BDEA4] (AR v2)
Track 14 accurately ripped (confidence 3) [71F6F375] (AR v2)
Track 15 accurately ripped (confidence 3) [0D395DD3] (AR v2)

All tracks accurately ripped

End of status report

==== Log checksum 1E31D72F12C68E6225ECA60381616C45721F24E8CCB0BA06393D912E51037834 ====

REM GENRE “Folk Rock”
REM DATE 2004
REM DISCID D9123410
REM COMMENT “ExactAudioCopy v1.0b3”
PERFORMER “Blackmore’s Night”
TITLE “All For One – The Finest Collection Of Blackmore’s Night”
FILE “Blackmore’s Night – All For One – The Finest Collection Of Blackmore’s Night.flac” WAVE
TRACK 01 AUDIO
TITLE “All For One”
PERFORMER “Blackmore’s Night”
ISRC DEA450302300
INDEX 01 00:00:00
TRACK 02 AUDIO
TITLE “Written In The Stars”
PERFORMER “Blackmore’s Night”
INDEX 00 05:31:29
INDEX 01 05:33:74
TRACK 03 AUDIO
TITLE “All Because Of You”
PERFORMER “Blackmore’s Night”
INDEX 00 10:21:20
INDEX 01 10:23:65
TRACK 04 AUDIO
TITLE “Writing On The Wall”
PERFORMER “Blackmore’s Night”
ISRC USMH19741408
INDEX 00 13:58:51
INDEX 01 14:01:21
TRACK 05 AUDIO
TITLE “Under A Violet Moon”
PERFORMER “Blackmore’s Night”
INDEX 00 18:36:53
INDEX 01 18:39:23
TRACK 06 AUDIO
TITLE “Shadow Of The Moon”
PERFORMER “Blackmore’s Night”
ISRC USMH19741401
INDEX 00 23:01:59
INDEX 01 23:03:66
TRACK 07 AUDIO
TITLE “Gone With The Wind”
PERFORMER “Blackmore’s Night”
INDEX 00 28:10:08
INDEX 01 28:11:53
TRACK 08 AUDIO
TITLE “Way To Mandalay”
PERFORMER “Blackmore’s Night”
ISRC DEA450302170
INDEX 00 33:35:14
INDEX 01 33:37:59
TRACK 09 AUDIO
TITLE “Spanish Nights (I Remember It Well)”
PERFORMER “Blackmore’s Night”
INDEX 00 40:02:11
INDEX 01 40:03:56
TRACK 10 AUDIO
TITLE “No Second Chance”
PERFORMER “Blackmore’s Night”
ISRC USMH19741411
INDEX 00 45:25:28
INDEX 01 45:27:73
TRACK 11 AUDIO
TITLE “Rainbow Blues”
PERFORMER “Blackmore’s Night”
ISRC DEA450302290
INDEX 00 51:07:10
INDEX 01 51:09:17
TRACK 12 AUDIO
TITLE “Waiting Just For You”
PERFORMER “Blackmore’s Night”
INDEX 00 55:35:31
INDEX 01 55:38:01
TRACK 13 AUDIO
TITLE “16th Century Greensleeves (LIVE)”
PERFORMER “Blackmore’s Night”
INDEX 00 58:53:40
INDEX 01 58:56:10
TRACK 14 AUDIO
TITLE “All Because Of You (New Remix)”
PERFORMER “Blackmore’s Night”
INDEX 00 63:30:61
INDEX 01 63:34:68
TRACK 15 AUDIO
TITLE “Once In Million Years (Wenn Aus Liebe Sehnsucht Wird)”
PERFORMER “Blackmore’s Night”
INDEX 00 67:02:00
INDEX 01 67:05:07


Spread the Download

Leave a Reply

Your email address will not be published. Required fields are marked *

Enter the text from the image below
 

This site uses Akismet to reduce spam. Learn how your comment data is processed.