Blackfoot – Southern Native




Artist: Blackfoot
Year: 2016
Genre: Rock
Notes: Discogs
Add. Notes:
Cover incl.: Yes
Encoder: FLAC
Bitrate: ~1000 kBit/s (44.1 kHz/16 Bit/s)
Log & Cue incl.: Yes
Size: 287,41 MB
Password: “slam” (without ” “)


All Downloads/Hosters are compatible

Download 1
Turbobit.net
Rapidgator.net
UploadEver.com
KatFile.com
UsersDrive.com
Download 2
Turbobit.net
Rapidgator.net
UploadEver.com
KatFile.com
UsersDrive.com
Download 3
Turbobit.net
Rapidgator.net
UploadEver.com
KatFile.com
UsersDrive.com

Tracklist:

1 - Need My Ride - 3:35
2 - Southern Native - 4:40
3 - Everyman - 5:22
4 - Call Of A Hero - 4:44
5 - Take Me Home - 4:47
6 - Whiskey Train - 3:25
7 - Satisfied Man - 3:40
8 - Ohio - 3:36
9 - Love This Town - 3:22
10 - Diablo Loves Guitar - 3:22

EAC-Log, CUE-Sheed & NFO:

Click to open spoiler
foobar2000 1.3.8 / Dynamic Range Meter 1.1.1
log date: 2016-08-05 16:22:57

——————————————————————————–
Analyzed: Blackfoot / Southern Native
——————————————————————————–

DR Peak RMS Duration Track
——————————————————————————–
DR6 -0.05 dB -7.27 dB 3:36 01-Need My Ride
DR7 -0.04 dB -8.58 dB 4:40 02-Southern Native
DR7 -0.05 dB -9.45 dB 5:23 03-Everyman
DR6 -0.03 dB -7.44 dB 4:43 04-Call Of A Hero
DR7 -0.07 dB -8.63 dB 4:51 05-Take Me Home
DR7 -0.04 dB -8.44 dB 3:25 06-Whiskey Train
DR8 -0.02 dB -8.90 dB 3:41 07-Satisfied Man
DR7 -0.02 dB -8.55 dB 3:40 08-Ohio
DR7 -0.02 dB -8.42 dB 3:25 09-Love This Town
DR12 0.00 dB -13.66 dB 3:26 10-Diablo Loves Guitar
——————————————————————————–

Number of tracks: 10
Official DR value: DR7

Samplerate: 44100 Hz
Channels: 2
Bits per sample: 16
Bitrate: 942 kbps
Codec: FLAC
================================================================================

———————–

DON’T MODIFY THIS FILE

———————–

PERFORMER: auCDtect Task Manager, ver. 1.5.1RC6 build 1.5.1.7
Copyright (c) 2008-2010 y-soft. All rights reserved
http://y-soft.org

ANALYZER: auCDtect: CD records authenticity detector, version 0.8.2
Copyright (c) 2004 Oleg Berngardt. All rights reserved.
Copyright (c) 2004 Alexander Djourik. All rights reserved.

FILE: 01 – Need My Ride.flac
Size: 28327567 Hash: BB390BF2074A35D17BC7C2E232858894 Accuracy: -m0
Conclusion: CDDA 100%
Signature: 2582AB20B1FDFDCFFA511350CBDA6F315ADAB5D0
FILE: 02 – Southern Native.flac
Size: 36547969 Hash: 2C68B0A79DBDF532E906C064E2C4E8BB Accuracy: -m0
Conclusion: CDDA 100%
Signature: 2EAE21AD7D5780245439DEFC22C9340383451CAA
FILE: 04 – Call Of A Hero.flac
Size: 35834903 Hash: 3834DB8A2936C9A724A74074A939DE65 Accuracy: -m0
Conclusion: CDDA 100%
Signature: 7C5D7082C251673B03CE38AC1F4738B99537E42E
FILE: 05 – Take Me Home.flac
Size: 35418773 Hash: E071F930FEE8165090DA6FF9DC728658 Accuracy: -m0
Conclusion: CDDA 100%
Signature: 1259BED0ECB9AC392F17CBB7593BFACB87F15A96
FILE: 06 – Whiskey Train.flac
Size: 25666626 Hash: 4CFE4877C00F392F2588835C4466893D Accuracy: -m0
Conclusion: CDDA 99%
Signature: 24C7771D41FF9274A6FF880315B72EE92F7E956F
FILE: 07 – Satisfied Man.flac
Size: 26751044 Hash: 6DFC52925C364E63BED243179C5C8C07 Accuracy: -m0
Conclusion: CDDA 100%
Signature: 2277E3C50042D45B840449BCE1203C304D318738
FILE: 08 – Ohio.flac
Size: 27124367 Hash: D89D0FDC75F290120204F7680473A1BF Accuracy: -m0
Conclusion: CDDA 100%
Signature: 19603F257B2964ED7DF9070B955349AEA59132B6
FILE: 09 – Love This Town.flac
Size: 26422499 Hash: 4D19E28174CFAE981BD5A65D302AFDE0 Accuracy: -m0
Conclusion: CDDA 100%
Signature: 159E73FC2395FF64F6429C7F7F6BAB51A225BCB6
FILE: 10 – Diablo Loves Guitar.flac
Size: 24387758 Hash: 618E4172BAC65777B5A4BB1CED5E1A15 Accuracy: -m0
Conclusion: CDDA 100%
Signature: 7B411D7EAE76B0677F884384B2D70452D9C3ADD5


Leave a Reply

Your email address will not be published. Required fields are marked *

This site uses Akismet to reduce spam. Learn how your comment data is processed.