Black Swan – Shake The World




No Cover available

Artist: Black Swan
Year: 2020
Genre: Rock
Notes: Discogs
Add. Notes:
Watch Songs on: YouTube
Cover incl.: No
Encoder: FLAC
Bitrate: ~1000 kBit/s (44.1 kHz/16 Bit/s)
Log & Cue incl.: Yes/Yes
Size: 402,8 MB
Password: “slam” (without ” “)


All Downloads/Hosters are compatible

Download 1
KatFile.com
Turbobit.net
Rapidgator.net
FileFactory.com
Download 2
KatFile.com
Turbobit.net
Rapidgator.net
FileFactory.com

Tracklist:

01. Shake the World (4:36)
02. Big Disaster (4:37)
03. Johnny Came Marching (5:46)
04. Immortal Souls (6:12)
05. Make It There (5:49)
06. She's on to Us (4:42)
07. The Rock That Rolled Away (6:22)
08. Long Road to Nowhere (4:19)
09. Sacred Place (4:47)
10. Unless We Change (3:59)
11. Divided/United (6:00)

EAC-Log, CUE-Sheed & NFO:

Click to open spoiler
CUE Corrector v. 8.3.6 / b. 963 (Feb. 12, 2020)
————————————————————————————————————————————————————————————————————————
Black Swan / Shake the World

Folder: Black Swan – 2020 – Shake the World [FLAC]
Audio files:
01 Shake the World.flac [04:35.680; FLAC • 1006 kbps • 16 bit \ 44100 Hz • stereo; 33,08 MB (34 689 640 B)]
02 Big Disaster.flac [04:37.160; FLAC • 997 kbps • 16 bit \ 44100 Hz • stereo; 32,97 MB (34 570 559 B)]
03 Johnny Came Marching.flac [05:46.267; FLAC • 970 kbps • 16 bit \ 44100 Hz • stereo; 40,06 MB (42 002 826 B)]
04 Immortal Souls.flac [06:12.267; FLAC • 1008 kbps • 16 bit \ 44100 Hz • stereo; 44,76 MB (46 935 081 B)]
05 Make It There.flac [05:49.240; FLAC • 967 kbps • 16 bit \ 44100 Hz • stereo; 40,26 MB (42 214 426 B)]
06 She’s on to Us.flac [04:41.613; FLAC • 1013 kbps • 16 bit \ 44100 Hz • stereo; 34,02 MB (35 670 558 B)]
07 The Rock That Rolled Away.flac [06:21.933; FLAC • 995 kbps • 16 bit \ 44100 Hz • stereo; 45,31 MB (47 507 775 B)]
08 Long Road to Nowhere.flac [04:18.587; FLAC • 995 kbps • 16 bit \ 44100 Hz • stereo; 30,67 MB (32 163 247 B)]
09 Sacred Place.flac [04:46.813; FLAC • 954 kbps • 16 bit \ 44100 Hz • stereo; 32,65 MB (34 236 694 B)]
10 Unless We Change.flac [03:58.520; FLAC • 990 kbps • 16 bit \ 44100 Hz • stereo; 28,18 MB (29 544 223 B)]
11 DividedUnited.flac [05:59.640; FLAC • 952 kbps • 16 bit \ 44100 Hz • stereo; 40,85 MB (42 834 194 B)]

Accuracy: -m3

File 01 Shake the World – 100% CDDA [04:35:51]
File 02 Big Disaster – 100% CDDA [04:37:12]
File 03 Johnny Came Marching – 100% CDDA [05:46:20]
File 04 Immortal Souls – 99% CDDA [06:12:20]
File 05 Make It There – 100% CDDA [05:49:18]
File 06 She’s on to Us – 100% CDDA [04:41:46]
File 07 The Rock That Rolled Away – 100% CDDA [06:21:70]
File 08 Long Road to Nowhere – 100% CDDA [04:18:44]
File 09 Sacred Place – 100% CDDA [04:46:61]
File 10 Unless We Change – 100% CDDA [03:58:39]
File 11 DividedUnited – 100% CDDA [05:59:48]
————— Summary: —————
These tracks looks like CDDA with probability 100%.
————————————————————————————————————————————————————————————————————————

ANALYZER:
auCDtect: CD records authenticity detector, version 0.8.2
Copyright (c) 2004 Oleg Berngardt. All rights reserved.
Copyright (c) 2004 Alexander Djourik. All rights reserved.

Time elapsed: 40.9 s
Log created at February 13, 2020 16:16:25

=== E263A0AE497CDDC8ACF2D5FAC160B18F6EB2B7A82F3DE80B212C1991B42E9F57 ===

CUETools
[CUETools log; Date: 13.02.2020 19:06:10; Version: 2.1.6]
Padded some input files to a frame boundary.
[CTDB TOCID: gS4K_.Oxs.U31eOPq1fXR1scdMA-] disk not present in database.
[AccurateRip ID: 0017a8de-00cd76e6-890d630b] disk not present in database.

Track Peak [ CRC32 ] [W/O NULL]
— 93,7 [F9F4F503] [6F860E20]
01 93,7 [70B899DA] [CEF9D7CA]
02 91,0 [D96E0906] [4E14B591]
03 91,3 [E9286004] [DBD0A42C]
04 92,5 [5377C17D] [03FDE039]
05 91,3 [B007A529] [826DE7D1]
06 90,6 [CE7DC810] [B68E3FEC]
07 92,4 [C1534A26] [3587B858]
08 92,3 [FFD02859] [2F4242FD]
09 92,9 [5A2C26A8] [26EA68D5]
10 92,0 [6D2AFAB3] [922D8BCA]
11 92,4 [292748A4] [C986629E]
[свернуть]
DR
foobar2000 1.5.1 / Замер динамического диапазона (DR) 1.1.1
Дата отчёта: 2020-02-13 19:06:13

——————————————————————————–
Анализ: Black Swan / Shake the World
——————————————————————————–

DR Пики RMS Продолжительность трека
——————————————————————————–
DR9 -0.56 дБ -10.19 дБ 4:36 01-Shake the World
DR8 -0.81 дБ -9.98 дБ 4:37 02-Big Disaster
DR9 -0.79 дБ -10.87 дБ 5:46 03-Johnny Came Marching
DR9 -0.68 дБ -10.17 дБ 6:12 04-Immortal Souls
DR8 -0.79 дБ -10.55 дБ 5:49 05-Make It There
DR9 -0.86 дБ -10.05 дБ 4:42 06-She’s on to Us
DR8 -0.68 дБ -10.31 дБ 6:22 07-The Rock That Rolled Away
DR9 -0.69 дБ -10.82 дБ 4:19 08-Long Road to Nowhere
DR9 -0.64 дБ -10.50 дБ 4:47 09-Sacred Place
DR8 -0.72 дБ -10.33 дБ 3:59 10-Unless We Change
DR8 -0.68 дБ -10.44 дБ 6:00 11-Divided/United
——————————————————————————–

Количество треков: 11
Реальные значения DR: DR9

Частота: 44100 Гц
Каналов: 2
Разрядность: 16
Битрейт: 946 кбит/с
Кодек: FLAC
================================================================================


Leave a Reply

Your email address will not be published. Required fields are marked *

Enter the text from the image below
 

This site uses Akismet to reduce spam. Learn how your comment data is processed.