Black Sabbath – We Sold Our Soul For Rock ‘N’ Roll




Artist: Black Sabbath
Year: 1975/2004
Genre: Metal
Notes: Discogs
Add. Notes:
Cover incl.: Yes
Encoder: FLAC
Bitrate: ~900 kBit/s (44.1 kHz/16 Bit/s)
Log & Cue incl.: Yes
Size: 638,31 MB
Password: “slam” (without ” “)


All Downloads/Hosters are compatible

Download 1
Turbobit.net
NitroFlare.com
KatFile.com
Rapidgator.net
Download 2
Turbobit.net
NitroFlare.com
KatFile.com
Rapidgator.net

Tracklist:

1-1. Black Sabbath 	
1-2. The Wizard 	
1-3. Warning 	
1-4. Paranoid 	
1-5. War Pigs 	
1-6. Iron Man 	
1-7. Wicked World 
	
2-1. Tomorrow's Dream 	
2-2. Fairies Wear Boots 	
2-3. Changes 	
2-4. Sweat Leaf 	
2-5. Children Of The Grave 	
2-6. Sabbath Bloody Sabbath 	
2-7. Am I Going Insane (Radio) 	
2-8. Laguna Sunrise 	
2-9. Snowblind 	
2-10. N.I.B.

EAC-Log, CUE-Sheed & NFO:

Click to open spoiler
Exact Audio Copy V0.99 prebeta 5 from 4. May 2009

Отчёт EAC об извлечении, выполненном 23. декабря 2010, 21:25

Black Sabbath / We Sold Our Soul For Rock ‘N’ Roll CD1

Дисковод: HL-DT-STDVDRAM GSA-H60N Adapter: 2 ID: 0

Режим чтения : Достоверность
Использование точного потока : Да
Отключение кэша аудио : Да
Использование указателей C2 : Нет

Коррекция смещения при чтении : 667
Способность читать области Lead-in и Lead-out : Нет
Заполнение пропущенных сэмплов тишиной : Да
Удаление блоков с тишиной в начале и конце : Нет
При вычислениях CRC использовались нулевые сэмплы : Да
Интерфейс : Встроенный Win32-интерфейс для Win NT/2000

Выходной формат : Внутренние WAV-операции
Формат сэмплов : 44.100 Гц; 16 бит; стерео

TOC извлечённого CD

Трек | Старт | Длительность | Начальный сектор | Конечный сектор
———————————————————————
1 | 0:00.00 | 6:18.44 | 0 | 28393
2 | 6:18.44 | 4:23.04 | 28394 | 48122
3 | 10:41.48 | 10:30.63 | 48123 | 95435
4 | 21:12.36 | 2:48.51 | 95436 | 108086
5 | 24:01.12 | 7:55.15 | 108087 | 143726
6 | 31:56.27 | 5:54.67 | 143727 | 170343
7 | 37:51.19 | 4:45.18 | 170344 | 191736

Характеристики диапазона извлечения и сообщения об ошибках

Выбранный диапазон

Имя файла C:\Documents and Settings\Администратор\Рабочий стол\Lossless Galaxy Rip by ALLexxess\2010 The Complete Ozzy Years (13CD Box Set Sanctuary Records)\1975 We Sold Our Soul For Rock ‘N’ Roll 2CD\CD1\We Sold Our Soul For Rock ‘N’ Roll CD1.wav

Пиковый уровень 96.5 %
Качество диапазона 100.0 %
CRC теста C3CA8840
CRC копии C3CA8840
Копирование… OK

Ошибок не произошло

AccurateRip: сводка

Трек 1 нет в базе данных
Трек 2 нет в базе данных
Трек 3 нет в базе данных
Трек 4 нет в базе данных
Трек 5 нет в базе данных
Трек 6 нет в базе данных
Трек 7 нет в базе данных

Ни одного трека нет в базе AccurateRip

Конец отчёта

Exact Audio Copy V0.99 prebeta 5 from 4. May 2009

Отчёт EAC об извлечении, выполненном 23. декабря 2010, 22:20

Black Sabbath / We Sold Our Soul For Rock ‘N’ Roll CD2

Дисковод: HL-DT-STDVDRAM GSA-H60N Adapter: 2 ID: 0

Режим чтения : Достоверность
Использование точного потока : Да
Отключение кэша аудио : Да
Использование указателей C2 : Нет

Коррекция смещения при чтении : 667
Способность читать области Lead-in и Lead-out : Нет
Заполнение пропущенных сэмплов тишиной : Да
Удаление блоков с тишиной в начале и конце : Нет
При вычислениях CRC использовались нулевые сэмплы : Да
Интерфейс : Встроенный Win32-интерфейс для Win NT/2000

Выходной формат : Внутренние WAV-операции
Формат сэмплов : 44.100 Гц; 16 бит; стерео

TOC извлечённого CD

Трек | Старт | Длительность | Начальный сектор | Конечный сектор
———————————————————————
1 | 0:00.00 | 3:11.12 | 0 | 14336
2 | 3:11.12 | 6:15.64 | 14337 | 42525
3 | 9:27.01 | 4:42.59 | 42526 | 63734
4 | 14:09.60 | 5:04.62 | 63735 | 86596
5 | 19:14.47 | 5:17.28 | 86597 | 110399
6 | 24:32.00 | 5:43.51 | 110400 | 136175
7 | 30:15.51 | 4:16.34 | 136176 | 155409
8 | 34:32.10 | 2:51.41 | 155410 | 168275
9 | 37:23.51 | 5:28.14 | 168276 | 192889
10 | 42:51.65 | 6:06.23 | 192890 | 220362

Характеристики диапазона извлечения и сообщения об ошибках

Выбранный диапазон

Имя файла C:\Documents and Settings\Администратор\Рабочий стол\Lossless Galaxy Rip by ALLexxess\2010 The Complete Ozzy Years (13CD Box Set Sanctuary Records)\1975 We Sold Our Soul For Rock ‘N’ Roll 2CD\CD2\We Sold Our Soul For Rock ‘N’ Roll CD2.wav

Пиковый уровень 97.0 %
Качество диапазона 100.0 %
CRC теста 329E6A9B
CRC копии 329E6A9B
Копирование… OK

Ошибок не произошло

AccurateRip: сводка

Трек 1 нет в базе данных
Трек 2 нет в базе данных
Трек 3 нет в базе данных
Трек 4 нет в базе данных
Трек 5 нет в базе данных
Трек 6 нет в базе данных
Трек 7 нет в базе данных
Трек 8 нет в базе данных
Трек 9 нет в базе данных
Трек 10 нет в базе данных

Ни одного трека нет в базе AccurateRip

Конец отчёта

REM GENRE “Hard Rock / Heavy Metal”
REM DATE 1975
REM DISCID 5509FC07
REM COMMENT “ExactAudioCopy v0.99pb5”
PERFORMER “Black Sabbath”
TITLE “We Sold Our Soul For Rock ‘N’ Roll CD1”
FILE “We Sold Our Soul For Rock ‘N’ Roll CD1.wav” WAVE
TRACK 01 AUDIO
TITLE “Black Sabbath”
PERFORMER “Black Sabbath”
INDEX 01 00:00:00
TRACK 02 AUDIO
TITLE “The Wizard”
PERFORMER “Black Sabbath”
INDEX 00 06:17:23
INDEX 01 06:18:44
TRACK 03 AUDIO
TITLE “Warning”
PERFORMER “Black Sabbath”
INDEX 00 10:39:65
INDEX 01 10:41:48
TRACK 04 AUDIO
TITLE “Paranoid”
PERFORMER “Black Sabbath”
INDEX 00 21:11:16
INDEX 01 21:12:36
TRACK 05 AUDIO
TITLE “War Pigs”
PERFORMER “Black Sabbath”
INDEX 00 23:59:67
INDEX 01 24:01:12
TRACK 06 AUDIO
TITLE “Iron Man”
PERFORMER “Black Sabbath”
INDEX 00 31:55:07
INDEX 01 31:56:27
TRACK 07 AUDIO
TITLE “Wicked World”
PERFORMER “Black Sabbath”
INDEX 00 37:49:74
INDEX 01 37:51:19

REM GENRE “Hard Rock / Heavy Metal”
REM DATE 1975
REM DISCID 8A0B7A0A
REM COMMENT “ExactAudioCopy v0.99pb5”
PERFORMER “Black Sabbath”
TITLE “We Sold Our Soul For Rock ‘N’ Roll CD2”
FILE “We Sold Our Soul For Rock ‘N’ Roll CD2.wav” WAVE
TRACK 01 AUDIO
TITLE “Tomorrow’s Dream”
PERFORMER “Black Sabbath”
INDEX 01 00:00:00
TRACK 02 AUDIO
TITLE “Fairies Wear Boots”
PERFORMER “Black Sabbath”
INDEX 00 03:09:12
INDEX 01 03:11:12
TRACK 03 AUDIO
TITLE “Changes”
PERFORMER “Black Sabbath”
INDEX 00 09:25:01
INDEX 01 09:27:01
TRACK 04 AUDIO
TITLE “Sweet Leaf”
PERFORMER “Black Sabbath”
INDEX 00 14:07:60
INDEX 01 14:09:60
TRACK 05 AUDIO
TITLE “Children Of The Grave”
PERFORMER “Black Sabbath”
INDEX 00 19:12:47
INDEX 01 19:14:47
TRACK 06 AUDIO
TITLE “Sabbath Bloody Sabbath”
PERFORMER “Black Sabbath”
INDEX 00 24:30:01
INDEX 01 24:32:00
TRACK 07 AUDIO
TITLE “Am I Going Insane (Radio)”
PERFORMER “Black Sabbath”
INDEX 00 30:15:50
INDEX 01 30:15:51
TRACK 08 AUDIO
TITLE “Laguna Sunrise”
PERFORMER “Black Sabbath”
INDEX 01 34:32:10
TRACK 09 AUDIO
TITLE “Snowblind”
PERFORMER “Black Sabbath”
INDEX 00 37:21:51
INDEX 01 37:23:51
TRACK 10 AUDIO
TITLE “N.I.B.”
PERFORMER “Black Sabbath”
INDEX 01 42:51:65


Leave a Reply

Your email address will not be published. Required fields are marked *

This site uses Akismet to reduce spam. Learn how your comment data is processed.