Black Sabbath – The Best Of




Artist: Black Sabbath
Year: 2000
Genre: Metal
Notes: Discogs
Add. Notes:
Encoder: FLAC
Bitrate: ~900 kBit/s (VBR)
Size: 1079,69 MB
Password: “slam” (without ” “)


Tracklist:

1-1 - Black Sabbath - 6:19
1-2 - The Wizard - 4:23
1-3 - NIB - 6:05
1-4 - Evil Woman (Don't Play Your Games With Me) - 3:21
1-5 - Wicked World - 4:44
1-6 - War Pigs - 7:56
1-7 - Paranoid - 2:49
1-8 - Planet Caravan - 4:26
1-9 - Iron Man - 5:56
1-10 - Electric Funeral - 4:47
1-11 - Fairies Wear Boots - 6:13
1-12 - Sweet Leaf - 5:04
1-13 - Embryo - 0:28
1-14 - Children Of The Grave - 5:16
1-15 - Lords Of This World - 5:26
1-16 - Into The Void - 6:10
2-1 - Tomorrow's Dream - 3:08
2-2 - Supernaut - 4:43
2-3 - Snowblind - 5:27
2-4 - Sabbath Bloody Sabbath - 5:44
2-5 - KIlling Yourself To Live - 5:39
2-6 - Spiral Architect - 5:30
2-7 - Hole In The Sky - 3:59
2-8 - Don't Start (Too Late) - 0:48
2-9 - Symptom Of The Universe - 6:30
2-10 - Am I Going Insane (Radio) - 4:16
2-11 - Dirty Women - 7:10
2-12 - Never Say Die - 3:48
2-13 - Hard Road - 6:03
2-14 - Heaven And Hell - 6:53
2-15 - Turn Up The Night - 3:40
2-16 - The Dark / Zero The Hero - 5:44

EAC-Log, CUE-Sheed & NFO:

Click to open spoiler
EAC extraction logfile from 4. October 2004, 20:10 for CD
Black Sabbath / The Best Of Black Sabbath (Disc 1) [Flac]

Used drive : JLMS XJ-HD166S Adapter: 1 ID: 1
Read mode : Secure with NO C2, accurate stream, disable cache
Read offset correction : 12
Overread into Lead-In and Lead-Out : No

Used output format : flac.exe (User Defined Encoder)
320 kBit/s
Additional command line options : -V -T “artist=%a” -T “title=%t” -T “album=%g” -T “date=%y” -T “tracknumber=%n” -T “genre=%m” -T “comment=” %s

Other options :
Fill up missing offset samples with silence : Yes
Delete leading and trailing silent blocks : No
Native Win32 interface for Win NT & 2000

Track 1
Filename 01 – Black Sabbath.flac

Pre-gap length 0:00:02.00

Peak level 73.0 %
Track quality 100.0 %
Test CRC 2E5BE6D8
Copy CRC 2E5BE6D8
Copy OK

Track 2
Filename 02 – The Wizard.flac

Pre-gap length 0:00:02.82

Peak level 73.0 %
Track quality 99.9 %
Test CRC 797B3C9C
Copy CRC 797B3C9C
Copy OK

Track 3
Filename 03 – N.I.B..flac

Pre-gap length 0:00:02.84

Peak level 73.0 %
Track quality 100.0 %
Test CRC 63F46B4C
Copy CRC 63F46B4C
Copy OK

Track 4
Filename 04 – Evil Woman (Don’t Play Games With Me).flac

Pre-gap length 0:00:02.84

Peak level 97.4 %
Track quality 99.9 %
Test CRC 8A53A858
Copy CRC 8A53A858
Copy OK

Track 5
Filename 05 – Wicked World.flac

Pre-gap length 0:00:02.84

Peak level 77.4 %
Track quality 100.0 %
Test CRC 2DB0FBE7
Copy CRC 2DB0FBE7
Copy OK

Track 6
Filename 06 – War Pigs.flac

Pre-gap length 0:00:02.82

Peak level 77.4 %
Track quality 100.0 %
Test CRC 07F71C96
Copy CRC 07F71C96
Copy OK

Track 7
Filename 07 – Paranoid.flac

Pre-gap length 0:00:02.82

Peak level 97.4 %
Track quality 100.0 %
Test CRC 1F873C55
Copy CRC 1F873C55
Copy OK

Track 8
Filename 08 – Planet Caravan.flac

Pre-gap length 0:00:02.84

Peak level 97.4 %
Track quality 100.0 %
Test CRC 93D5C874
Copy CRC 93D5C874
Copy OK

Track 9
Filename 09 – Iron Man.flac

Pre-gap length 0:00:02.82

Peak level 97.4 %
Track quality 100.0 %
Test CRC 8378DAC5
Copy CRC 8378DAC5
Copy OK

Track 10
Filename 10 – Electric Funeral.flac

Pre-gap length 0:00:02.82

Peak level 97.4 %
Track quality 100.0 %
Test CRC DE7F29E3
Copy CRC DE7F29E3
Copy OK

Track 11
Filename 11 – Fairies Wear Boots.flac

Pre-gap length 0:00:02.84

Peak level 82.0 %
Track quality 100.0 %
Test CRC 74420600
Copy CRC 74420600
Copy OK

Track 12
Filename 12 – Sweet Leaf.flac

Pre-gap length 0:00:02.82

Peak level 97.4 %
Track quality 100.0 %
Test CRC AB04DB73
Copy CRC AB04DB73
Copy OK

Track 13
Filename 13 – Embryo.flac

Pre-gap length 0:00:02.82

Peak level 97.7 %
Track quality 100.0 %
Test CRC 6B3C169C
Copy CRC 6B3C169C
Copy OK

Track 14
Filename 14 – Children Of The Grave.flac

Peak level 97.4 %
Track quality 99.9 %
Test CRC 2E827B87
Copy CRC 2E827B87
Copy OK

Track 15
Filename 15 – Lord Of This World.flac

Pre-gap length 0:00:02.82

Peak level 77.4 %
Track quality 100.0 %
Test CRC F96191E5
Copy CRC F96191E5
Copy OK

Track 16
Filename 16 – Into The Void.flac

Pre-gap length 0:00:02.84

Peak level 77.4 %
Track quality 100.0 %
Test CRC 0BB307A8
Copy CRC 0BB307A8
Copy OK

No errors occured

End of status report

EAC extraction logfile from 4. October 2004, 20:40 for CD
Black Sabbath / The Best Of Black Sabbath (Disc 2) [Flac]

Used drive : JLMS XJ-HD166S Adapter: 1 ID: 1
Read mode : Secure with NO C2, accurate stream, disable cache
Read offset correction : 12
Overread into Lead-In and Lead-Out : No

Used output format : flac.exe (User Defined Encoder)
320 kBit/s
Additional command line options : -V -T “artist=%a” -T “title=%t” -T “album=%g” -T “date=%y” -T “tracknumber=%n” -T “genre=%m” -T “comment=” %s

Other options :
Fill up missing offset samples with silence : Yes
Delete leading and trailing silent blocks : No
Native Win32 interface for Win NT & 2000

Track 1
Filename 01 – Tomorrow’s Dream.flac

Pre-gap length 0:00:02.00

Peak level 98.5 %
Track quality 99.9 %
Test CRC 1CCA0D20
Copy CRC 1CCA0D20
Copy OK

Track 2
Filename 02 – Supernaut.flac

Pre-gap length 0:00:01.73

Peak level 87.8 %
Track quality 100.0 %
Test CRC FE1F5851
Copy CRC FE1F5851
Copy OK

Track 3
Filename 03 – Snowblind.flac

Pre-gap length 0:00:01.73

Peak level 78.3 %
Track quality 100.0 %
Test CRC 5E9C79DE
Copy CRC 5E9C79DE
Copy OK

Track 4
Filename 04 – Sabbath Bloody Sabbath.flac

Pre-gap length 0:00:01.73

Peak level 82.9 %
Track quality 100.0 %
Test CRC 23D17064
Copy CRC 23D17064
Copy OK

Track 5
Filename 05 – Killing Yourself To Live.flac

Pre-gap length 0:00:01.73

Peak level 82.9 %
Track quality 99.9 %
Test CRC 04066CA0
Copy CRC 04066CA0
Copy OK

Track 6
Filename 06 – Spiral Architect.flac

Pre-gap length 0:00:01.73

Peak level 78.3 %
Track quality 100.0 %
Test CRC 3111FC92
Copy CRC 3111FC92
Copy OK

Track 7
Filename 07 – Hole In The Sky.flac

Pre-gap length 0:00:01.73

Peak level 89.9 %
Track quality 100.0 %
Test CRC A2FE4410
Copy CRC A2FE4410
Copy OK

Track 8
Filename 08 – Don’t Start (Too Late).flac

Peak level 60.6 %
Track quality 100.0 %
Test CRC DA4941EB
Copy CRC DA4941EB
Copy OK

Track 9
Filename 09 – Symptom Of The Universe.flac

Peak level 87.8 %
Track quality 100.0 %
Test CRC 5E8D78E1
Copy CRC 5E8D78E1
Copy OK

Track 10
Filename 10 – Am I Going Insane (Radio).flac

Pre-gap length 0:00:01.73

Peak level 78.3 %
Track quality 100.0 %
Test CRC 2DB6AB04
Copy CRC 2DB6AB04
Copy OK

Track 11
Filename 11 – Dirty Women.flac

Pre-gap length 0:00:01.73

Peak level 78.3 %
Track quality 99.9 %
Test CRC 2D43F56F
Copy CRC 2D43F56F
Copy OK

Track 12
Filename 12 – Never Say Die.flac

Pre-gap length 0:00:01.73

Peak level 78.3 %
Track quality 100.0 %
Test CRC 1DDE9987
Copy CRC 1DDE9987
Copy OK

Track 13
Filename 13 – Hard Road.flac

Pre-gap length 0:00:01.73

Peak level 78.3 %
Track quality 99.9 %
Test CRC 4B91A035
Copy CRC 4B91A035
Copy OK

Track 14
Filename 14 – Heaven And Hell.flac

Pre-gap length 0:00:01.73

Peak level 98.5 %
Track quality 100.0 %
Test CRC 5B438CB3
Copy CRC 5B438CB3
Copy OK

Track 15
Filename 15 – Turn Up The Night.flac

Pre-gap length 0:00:01.69

Peak level 87.8 %
Track quality 100.0 %
Test CRC 2E1DC2AE
Copy CRC 2E1DC2AE
Copy OK

Track 16
Filename 16 – The Dark – Zero The Hero.flac

Pre-gap length 0:00:01.73

Peak level 87.8 %
Track quality 100.0 %
Test CRC B7E3C6D7
Copy CRC B7E3C6D7
Copy OK

No errors occured

End of status report

PERFORMER “Black Sabbath”
TITLE “The Best Of Black Sabbath (Disc 1)”
FILE “01 – Black Sabbath.flac” WAVE
TRACK 01 AUDIO
TITLE “Black Sabbath”
PERFORMER “Black Sabbath”
INDEX 01 00:00:00
TRACK 02 AUDIO
TITLE “The Wizard”
PERFORMER “Black Sabbath”
INDEX 00 06:17:05
FILE “02 – The Wizard.flac” WAVE
INDEX 01 00:00:00
TRACK 03 AUDIO
TITLE “N.I.B.”
PERFORMER “Black Sabbath”
INDEX 00 04:21:10
FILE “03 – N.I.B..flac” WAVE
INDEX 01 00:00:00
TRACK 04 AUDIO
TITLE “Evil Woman (Don’t Play Games With Me)”
PERFORMER “Black Sabbath”
INDEX 00 06:02:62
FILE “04 – Evil Woman (Don’t Play Games With Me).flac” WAVE
INDEX 01 00:00:00
TRACK 05 AUDIO
TITLE “Wicked World”
PERFORMER “Black Sabbath”
INDEX 00 03:18:52
FILE “05 – Wicked World.flac” WAVE
INDEX 01 00:00:00
TRACK 06 AUDIO
TITLE “War Pigs”
PERFORMER “Black Sabbath”
INDEX 00 04:42:70
FILE “06 – War Pigs.flac” WAVE
INDEX 01 00:00:00
TRACK 07 AUDIO
TITLE “Paranoid”
PERFORMER “Black Sabbath”
INDEX 00 07:53:53
FILE “07 – Paranoid.flac” WAVE
INDEX 01 00:00:00
TRACK 08 AUDIO
TITLE “Planet Caravan”
PERFORMER “Black Sabbath”
INDEX 00 02:47:00
FILE “08 – Planet Caravan.flac” WAVE
INDEX 01 00:00:00
TRACK 09 AUDIO
TITLE “Iron Man”
PERFORMER “Black Sabbath”
INDEX 00 04:24:40
FILE “09 – Iron Man.flac” WAVE
INDEX 01 00:00:00
TRACK 10 AUDIO
TITLE “Electric Funeral”
PERFORMER “Black Sabbath”
INDEX 00 05:53:48
FILE “10 – Electric Funeral.flac” WAVE
INDEX 01 00:00:00
TRACK 11 AUDIO
TITLE “Fairies Wear Boots”
PERFORMER “Black Sabbath”
INDEX 00 04:46:00
FILE “11 – Fairies Wear Boots.flac” WAVE
INDEX 01 00:00:00
TRACK 12 AUDIO
TITLE “Sweet Leaf”
PERFORMER “Black Sabbath”
INDEX 00 06:10:50
FILE “12 – Sweet Leaf.flac” WAVE
INDEX 01 00:00:00
TRACK 13 AUDIO
TITLE “Embryo”
PERFORMER “Black Sabbath”
INDEX 00 05:01:63
FILE “13 – Embryo.flac” WAVE
INDEX 01 00:00:00
FILE “14 – Children Of The Grave.flac” WAVE
TRACK 14 AUDIO
TITLE “Children Of The Grave”
PERFORMER “Black Sabbath”
INDEX 01 00:00:00
TRACK 15 AUDIO
TITLE “Lord Of This World”
PERFORMER “Black Sabbath”
INDEX 00 05:14:20
FILE “15 – Lord Of This World.flac” WAVE
INDEX 01 00:00:00
TRACK 16 AUDIO
TITLE “Into The Void”
PERFORMER “Black Sabbath”
INDEX 00 05:24:20
FILE “16 – Into The Void.flac” WAVE
INDEX 01 00:00:00

PERFORMER “Black Sabbath”
TITLE “The Best Of Black Sabbath (Disc 2)”
FILE “01 – Tomorrow’s Dream.flac” WAVE
TRACK 01 AUDIO
TITLE “Tomorrow’s Dream”
PERFORMER “Black Sabbath”
INDEX 01 00:00:00
TRACK 02 AUDIO
TITLE “Supernaut”
PERFORMER “Black Sabbath”
INDEX 00 03:07:15
FILE “02 – Supernaut.flac” WAVE
INDEX 01 00:00:00
TRACK 03 AUDIO
TITLE “Snowblind”
PERFORMER “Black Sabbath”
INDEX 00 04:41:72
FILE “03 – Snowblind.flac” WAVE
INDEX 01 00:00:00
TRACK 04 AUDIO
TITLE “Sabbath Bloody Sabbath”
PERFORMER “Black Sabbath”
INDEX 00 05:26:18
FILE “04 – Sabbath Bloody Sabbath.flac” WAVE
INDEX 01 00:00:00
TRACK 05 AUDIO
TITLE “Killing Yourself To Live”
PERFORMER “Black Sabbath”
INDEX 00 05:43:12
FILE “05 – Killing Yourself To Live.flac” WAVE
INDEX 01 00:00:00
TRACK 06 AUDIO
TITLE “Spiral Architect”
PERFORMER “Black Sabbath”
INDEX 00 05:38:48
FILE “06 – Spiral Architect.flac” WAVE
INDEX 01 00:00:00
TRACK 07 AUDIO
TITLE “Hole In The Sky”
PERFORMER “Black Sabbath”
INDEX 00 05:28:67
FILE “07 – Hole In The Sky.flac” WAVE
INDEX 01 00:00:00
FILE “08 – Don’t Start (Too Late).flac” WAVE
TRACK 08 AUDIO
TITLE “Don’t Start (Too Late)”
PERFORMER “Black Sabbath”
INDEX 01 00:00:00
FILE “09 – Symptom Of The Universe.flac” WAVE
TRACK 09 AUDIO
TITLE “Symptom Of The Universe”
PERFORMER “Black Sabbath”
INDEX 01 00:00:00
TRACK 10 AUDIO
TITLE “Am I Going Insane (Radio)”
PERFORMER “Black Sabbath”
INDEX 00 06:29:23
FILE “10 – Am I Going Insane (Radio).flac” WAVE
INDEX 01 00:00:00
TRACK 11 AUDIO
TITLE “Dirty Women”
PERFORMER “Black Sabbath”
INDEX 00 04:15:27
FILE “11 – Dirty Women.flac” WAVE
INDEX 01 00:00:00
TRACK 12 AUDIO
TITLE “Never Say Die”
PERFORMER “Black Sabbath”
INDEX 00 07:08:45
FILE “12 – Never Say Die.flac” WAVE
INDEX 01 00:00:00
TRACK 13 AUDIO
TITLE “Hard Road”
PERFORMER “Black Sabbath”
INDEX 00 03:47:23
FILE “13 – Hard Road.flac” WAVE
INDEX 01 00:00:00
TRACK 14 AUDIO
TITLE “Heaven And Hell”
PERFORMER “Black Sabbath”
INDEX 00 06:02:37
FILE “14 – Heaven And Hell.flac” WAVE
INDEX 01 00:00:00
TRACK 15 AUDIO
TITLE “Turn Up The Night”
PERFORMER “Black Sabbath”
INDEX 00 06:52:58
FILE “15 – Turn Up The Night.flac” WAVE
INDEX 01 00:00:00
TRACK 16 AUDIO
TITLE “The Dark / Zero The Hero”
PERFORMER “Black Sabbath”
INDEX 00 03:39:03
FILE “16 – The Dark – Zero The Hero.flac” WAVE
INDEX 01 00:00:00

Leave a Reply

Your email address will not be published. Required fields are marked *

This site uses Akismet to reduce spam. Learn how your comment data is processed.