Black Sabbath – Technical Ecstasy




Artist: Black Sabbath
Year: 1976/2016
Genre: Metal
Notes: Discogs
Add. Notes:
Cover incl.: No
Encoder: FLAC
Bitrate: ~800 kBit/s (44.1 kHz/16 Bit/s)
Log & Cue incl.: Yes
Size: 276,96 MB
Password: “slam” (without ” “)


All Downloads/Hosters are compatible

Download 1
Turbobit.net
KatFile.com
Rapidgator.net
Usersdrive.com
Download 2
Turbobit.net
KatFile.com
Rapidgator.net
Usersdrive.com

Tracklist:

1 - Back Street Kids - 3:46
2 - You Won't Change Me - 6:34
3 - It's Alright - 3:58
4 - Gypsy - 5:10
5 - All Moving Parts (Stand Still) - 4:59
6 - Rock 'N' Roll Doctor - 3:25
7 - She's Gone - 4:51
8 - Dirty Women - 7:15

EAC-Log, CUE-Sheed & NFO:

Click to open spoiler
Exact Audio Copy V1.3 from 2. September 2016

EAC extraction logfile from 13. November 2016, 6:52

Black Sabbath / Technical Ecstasy

Used drive : TSSTcorpCDDVDW SU-208DB Adapter: 1 ID: 0

Read mode : Secure
Utilize accurate stream : Yes
Defeat audio cache : Yes
Make use of C2 pointers : No

Read offset correction : 48
Overread into Lead-In and Lead-Out : No
Fill up missing offset samples with silence : Yes
Delete leading and trailing silent blocks : No
Null samples used in CRC calculations : Yes
Used interface : Native Win32 interface for Win NT & 2000
Gap handling : Appended to previous track

Used output format : User Defined Encoder
Selected bitrate : 128 kBit/s
Quality : High
Add ID3 tag : No
Command line compressor : C:\Program Files (x86)\Exact Audio Copy\Flac\flac.exe
Additional command line options : -8 -V -T “ARTIST=%artist%” -T “TITLE=%title%” -T “ALBUM=%albumtitle%” -T “DATE=%year%” -T “TRACKNUMBER=%tracknr%” -T “GENRE=%genre%” -T “PERFORMER=%albuminterpret%” -T “COMPOSER=%composer%” %haslyrics%–tag-from-file=LYRICS=”%lyricsfile%”%haslyrics% -T “ALBUMARTIST=%albumartist%” -T “DISCNUMBER=%cdnumber%” -T “TOTALDISCS=%totalcds%” -T “TOTALTRACKS=%numtracks%” -T “COMMENT=%comment%” %source% -o %dest%

TOC of the extracted CD

Track | Start | Length | Start sector | End sector
———————————————————
1 | 0:00.00 | 3:47.49 | 0 | 17073
2 | 3:47.49 | 6:38.19 | 17074 | 46942
3 | 10:25.68 | 3:59.22 | 46943 | 64889
4 | 14:25.15 | 5:08.18 | 64890 | 88007
5 | 19:33.33 | 4:58.37 | 88008 | 110394
6 | 24:31.70 | 3:26.67 | 110395 | 125911
7 | 27:58.62 | 4:51.44 | 125912 | 147780
8 | 32:50.31 | 7:08.39 | 147781 | 179919

Track 1

Filename C:\EAC Rips\Black Sabbath – Technical Ecstasy (1976) [FLAC] {2016 Remaster}\01. Back Street Kids.wav

Pre-gap length 0:00:02.00

Peak level 97.0 %
Extraction speed 2.6 X
Track quality 100.0 %
Test CRC 615D27F8
Copy CRC 615D27F8
Accurately ripped (confidence 2) [72473D51] (AR v2)
Copy OK

Track 2

Filename C:\EAC Rips\Black Sabbath – Technical Ecstasy (1976) [FLAC] {2016 Remaster}\02. You Won’t Change Me.wav

Peak level 97.0 %
Extraction speed 3.2 X
Track quality 100.0 %
Test CRC 890DEFF3
Copy CRC 890DEFF3
Accurately ripped (confidence 2) [389C5966] (AR v2)
Copy OK

Track 3

Filename C:\EAC Rips\Black Sabbath – Technical Ecstasy (1976) [FLAC] {2016 Remaster}\03. It’s Alright.wav

Peak level 97.0 %
Extraction speed 3.4 X
Track quality 100.0 %
Test CRC 61C3C07D
Copy CRC 61C3C07D
Accurately ripped (confidence 2) [D8A7CDF6] (AR v2)
Copy OK

Track 4

Filename C:\EAC Rips\Black Sabbath – Technical Ecstasy (1976) [FLAC] {2016 Remaster}\04. Gypsy.wav

Peak level 97.0 %
Extraction speed 3.8 X
Track quality 100.0 %
Test CRC 867490E6
Copy CRC 867490E6
Accurately ripped (confidence 2) [AB262A9B] (AR v2)
Copy OK

Track 5

Filename C:\EAC Rips\Black Sabbath – Technical Ecstasy (1976) [FLAC] {2016 Remaster}\05. All Moving Parts (Stand Still).wav

Peak level 97.0 %
Extraction speed 3.5 X
Track quality 99.9 %
Test CRC 713290E9
Copy CRC 713290E9
Accurately ripped (confidence 2) [89441180] (AR v2)
Copy OK

Track 6

Filename C:\EAC Rips\Black Sabbath – Technical Ecstasy (1976) [FLAC] {2016 Remaster}\06. Rock ‘n’ Roll Doctor.wav

Peak level 97.0 %
Extraction speed 4.1 X
Track quality 100.0 %
Test CRC 66066154
Copy CRC 66066154
Accurately ripped (confidence 2) [5958669F] (AR v2)
Copy OK

Track 7

Filename C:\EAC Rips\Black Sabbath – Technical Ecstasy (1976) [FLAC] {2016 Remaster}\07. She’s Gone.wav

Peak level 92.3 %
Extraction speed 4.5 X
Track quality 100.0 %
Test CRC FB348E48
Copy CRC FB348E48
Accurately ripped (confidence 2) [6732F8BA] (AR v2)
Copy OK

Track 8

Filename C:\EAC Rips\Black Sabbath – Technical Ecstasy (1976) [FLAC] {2016 Remaster}\08. Dirty Women.wav

Peak level 97.0 %
Extraction speed 4.9 X
Track quality 100.0 %
Test CRC 02B13DCD
Copy CRC 02B13DCD
Accurately ripped (confidence 2) [28FEC789] (AR v2)
Copy OK

All tracks accurately ripped

No errors occurred

End of status report

—- CUETools DB Plugin V2.1.6

[CTDB TOCID: liej68gscasvwYiv_dqGkxCYOHE-] found
Submit result: liej68gscasvwYiv_dqGkxCYOHE- has been confirmed
Track | CTDB Status
1 | (4/4) Accurately ripped
2 | (4/4) Accurately ripped
3 | (4/4) Accurately ripped
4 | (4/4) Accurately ripped
5 | (4/4) Accurately ripped
6 | (4/4) Accurately ripped
7 | (4/4) Accurately ripped
8 | (4/4) Accurately ripped

==== Log checksum 9F37CB4B07E72394D6F38549E48945BE9D44C11F4625C80AD69BCAEA58A26112 ====

REM DISCID 72095E08
REM COMMENT “ExactAudioCopy v1.3”
CATALOG 0081227946692
PERFORMER “Black Sabbath”
TITLE “Technical Ecstasy”
REM COMPOSER “”
FILE “01. Back Street Kids – Black Sabbath.wav” WAVE
TRACK 01 AUDIO
TITLE “Back Street Kids – Black Sabbath”
PERFORMER “Black Sabbath”
REM COMPOSER “”
ISRC GBAJE7600024
INDEX 01 00:00:00
FILE “02. You Won’t Change Me – Black Sabbath.wav” WAVE
TRACK 02 AUDIO
TITLE “You Won’t Change Me – Black Sabbath”
PERFORMER “Black Sabbath”
REM COMPOSER “”
ISRC GBAJE7600025
INDEX 01 00:00:00
FILE “03. It’s Alright – Black Sabbath.wav” WAVE
TRACK 03 AUDIO
TITLE “It’s Alright – Black Sabbath”
PERFORMER “Black Sabbath”
REM COMPOSER “”
ISRC GBAJE7600026
INDEX 01 00:00:00
FILE “04. Gypsy – Black Sabbath.wav” WAVE
TRACK 04 AUDIO
TITLE “Gypsy – Black Sabbath”
PERFORMER “Black Sabbath”
REM COMPOSER “”
ISRC GBAJE7600027
INDEX 01 00:00:00
FILE “05. All Moving Parts (Stand Still) – Black Sabbath.wav” WAVE
TRACK 05 AUDIO
TITLE “All Moving Parts (Stand Still) – Black Sabbath”
PERFORMER “Black Sabbath”
REM COMPOSER “”
ISRC GBAJE7600028
INDEX 01 00:00:00
FILE “06. Rock ‘N’ Roll Doctor – Black Sabbath.wav” WAVE
TRACK 06 AUDIO
TITLE “Rock ‘N’ Roll Doctor – Black Sabbath”
PERFORMER “Black Sabbath”
REM COMPOSER “”
ISRC GBAJE7600029
INDEX 01 00:00:00
FILE “07. She’s Gone – Black Sabbath.wav” WAVE
TRACK 07 AUDIO
TITLE “She’s Gone – Black Sabbath”
PERFORMER “Black Sabbath”
REM COMPOSER “”
ISRC GBAJE7600030
INDEX 01 00:00:00
FILE “08. Dirty Women – Black Sabbath.wav” WAVE
TRACK 08 AUDIO
TITLE “Dirty Women – Black Sabbath”
PERFORMER “Black Sabbath”
REM COMPOSER “”
ISRC GBAJE7600031
INDEX 01 00:00:00


Leave a Reply

Your email address will not be published. Required fields are marked *

Enter the text from the image below
 

This site uses Akismet to reduce spam. Learn how your comment data is processed.