Black Sabbath – Technical Ecstasy (Limited Remastered Edition)




Artist: Black Sabbath
Year: 1976/2010
Genre: Metal
Notes: Discogs
Add. Notes: Limited Remastered Edition
Cover incl.: Yes
Encoder: FLAC
Bitrate: ~1000 kBit/s (44.1 kHz/16 Bit/s)
Log & Cue incl.: Yes
Size: 322,01 MB
Password: “slam” (without ” “)


All Downloads/Hosters are compatible

Download 1
Turbobit.net
NitroFlare.com
KatFile.com
Rapidgator.net
Download 2
Turbobit.net
NitroFlare.com
KatFile.com
Rapidgator.net

Tracklist:

1 - Back Street Kids - 3:48
2 - You Won't Change Me - 6:43
3 - It's Alright - 4:06
4 - Gypsy - 5:11
5 - All Moving Parts (Stand Still) - 5:05
6 - Rock 'N' Roll Doctor - 3:34
7 - She's Gone - 4:57
8 - Dirty Women - 7:10

EAC-Log, CUE-Sheed & NFO:

Click to open spoiler
Exact Audio Copy V0.99 prebeta 5 from 4. May 2009

Отчёт EAC об извлечении, выполненном 24. декабря 2010, 0:36

Black Sabbath / Technical Ecstasy

Дисковод: HL-DT-STDVDRAM GSA-H60N Adapter: 2 ID: 0

Режим чтения : Достоверность
Использование точного потока : Да
Отключение кэша аудио : Да
Использование указателей C2 : Нет

Коррекция смещения при чтении : 667
Способность читать области Lead-in и Lead-out : Нет
Заполнение пропущенных сэмплов тишиной : Да
Удаление блоков с тишиной в начале и конце : Нет
При вычислениях CRC использовались нулевые сэмплы : Да
Интерфейс : Встроенный Win32-интерфейс для Win NT/2000

Выходной формат : Внутренние WAV-операции
Формат сэмплов : 44.100 Гц; 16 бит; стерео

TOC извлечённого CD

Трек | Старт | Длительность | Начальный сектор | Конечный сектор
———————————————————————
1 | 0:00.00 | 3:47.61 | 0 | 17085
2 | 3:47.61 | 6:43.10 | 17086 | 47320
3 | 10:30.71 | 4:06.03 | 47321 | 65773
4 | 14:36.74 | 5:11.07 | 65774 | 89105
5 | 19:48.06 | 5:05.20 | 89106 | 112000
6 | 24:53.26 | 3:34.16 | 112001 | 128066
7 | 28:27.42 | 4:56.50 | 128067 | 150316
8 | 33:24.17 | 7:09.62 | 150317 | 182553

Характеристики диапазона извлечения и сообщения об ошибках

Выбранный диапазон

Имя файла C:\Documents and Settings\Администратор\Рабочий стол\Lossless Galaxy Rip by ALLexxess\2010 The Complete Ozzy Years (13CD Box Set Sanctuary Records)\1976 Technical Ecstasy\Black Sabbath – Technical Ecstasy.wav

Пиковый уровень 96.8 %
Качество диапазона 99.9 %
CRC теста F742CE9A
CRC копии F742CE9A
Копирование… OK

Ошибок не произошло

AccurateRip: сводка

Трек 1 точность не определена (достоверность 16) [2F36FDA8], AccurateRip вернул [B4C8DFA6]
Трек 2 точность не определена (достоверность 16) [F002A216], AccurateRip вернул [D178F1AF]
Трек 3 точность не определена (достоверность 16) [33A93213], AccurateRip вернул [78054E91]
Трек 4 точность не определена (достоверность 16) [D27060B2], AccurateRip вернул [9F8B912C]
Трек 5 точность не определена (достоверность 16) [8CB43441], AccurateRip вернул [58A9909B]
Трек 6 точность не определена (достоверность 16) [BAF35C73], AccurateRip вернул [AD3E2D29]
Трек 7 точность не определена (достоверность 16) [8BBD5775], AccurateRip вернул [AB2C284A]
Трек 8 точность не определена (достоверность 16) [B39C57A5], AccurateRip вернул [D66B3480]

Ни один трек не прошёл проверки на точность
В вашей базе может быть иной вариант штамповки диска

Конец отчёта

REM GENRE “Hard Rock / Heavy Metal”
REM DATE 1976
REM DISCID 68098208
REM COMMENT “ExactAudioCopy v0.99pb5”
PERFORMER “Black Sabbath”
TITLE “Technical Ecstasy”
FILE “Black Sabbath – Technical Ecstasy.wav” WAVE
TRACK 01 AUDIO
TITLE “Back Street Kids”
PERFORMER “Black Sabbath”
INDEX 01 00:00:00
TRACK 02 AUDIO
TITLE “You Won’t Change Me”
PERFORMER “Black Sabbath”
INDEX 01 03:47:61
TRACK 03 AUDIO
TITLE “It’s Allright”
PERFORMER “Black Sabbath”
INDEX 00 10:23:62
INDEX 01 10:30:71
TRACK 04 AUDIO
TITLE “Gypsy”
PERFORMER “Black Sabbath”
INDEX 00 14:29:53
INDEX 01 14:36:74
TRACK 05 AUDIO
TITLE “All Moving Parts (Stand Still)”
PERFORMER “Black Sabbath”
INDEX 00 19:45:06
INDEX 01 19:48:06
TRACK 06 AUDIO
TITLE “Rock ‘N’ Roll Doctor”
PERFORMER “Black Sabbath”
INDEX 00 24:45:48
INDEX 01 24:53:26
TRACK 07 AUDIO
TITLE “She Is Gone”
PERFORMER “Black Sabbath”
INDEX 00 28:17:36
INDEX 01 28:27:42
TRACK 08 AUDIO
TITLE “Dirty Woman”
PERFORMER “Black Sabbath”
INDEX 00 33:17:22
INDEX 01 33:24:17


Leave a Reply

Your email address will not be published. Required fields are marked *

This site uses Akismet to reduce spam. Learn how your comment data is processed.