Black Sabbath – Sabotage (Remastered)




Artist: Black Sabbath
Year: 1975/2016
Genre: Metal
Notes: Discogs
Add. Notes: Remastered
Cover incl.: Yes
Encoder: FLAC
Bitrate: ~900 kBit/s (44.1 kHz/16 Bit/s)
Log & Cue incl.: Yes
Size: 289,3 MB
Password: “slam” (without ” “)


All Downloads/Hosters are compatible

Download 1
Turbobit.net
Rapidgator.net
KatFile.com
UploadRar.com
Download 2
Turbobit.net
Rapidgator.net
KatFile.com
UploadRar.com

Tracklist:

1 - Hole In The Sky - 4:00
2 - Don't Start (Too Late) - 0:49
3 - Symptom Of The Universe - 6:28
4 - Megalomania - 9:40
5 - Thrill Of It All - 5:52
6 - Supertzar - 3:42
7 - Am I Going Insane (Radio) - 4:15
8 - The Writ - 8:09
9 - Sweat Leaf (Live) - 5:30

EAC-Log, CUE-Sheed & NFO:

Click to open spoiler
Exact Audio Copy V1.0 beta 3 from 29. August 2011

EAC extraction logfile from 19. January 2017, 13:41

Black Sabbath / Sabotage

Used drive : HL-DT-STDVD+-RW GU90N Adapter: 0 ID: 0

Read mode : Secure
Utilize accurate stream : Yes
Defeat audio cache : Yes
Make use of C2 pointers : No

Read offset correction : 102
Overread into Lead-In and Lead-Out : No
Fill up missing offset samples with silence : Yes
Delete leading and trailing silent blocks : No
Null samples used in CRC calculations : Yes
Used interface : Native Win32 interface for Win NT & 2000
Gap handling : Appended to previous track

Used output format : User Defined Encoder
Selected bitrate : 1024 kBit/s
Quality : High
Add ID3 tag : No
Command line compressor : C:\Program Files (x86)\Exact Audio Copy\Flac\flac.exe
Additional command line options : -8 -V -T “ARTIST=%artist%” -T “TITLE=%title%” -T “ALBUM=%albumtitle%” -T “DATE=%year%” -T “TRACKNUMBER=%tracknr%” -T “GENRE=%genre%” -T “PERFORMER=%albuminterpret%” -T “COMPOSER=%composer%” %haslyrics%–tag-from-file=LYRICS=”%lyricsfile%”%haslyrics% -T “ALBUMARTIST=%albumartist%” -T “DISCNUMBER=%cdnumber%” -T “TOTALDISCS=%totalcds%” -T “TOTALTRACKS=%numtracks%” -T “COMMENT=%comment%” %source% -o %dest%

TOC of the extracted CD

Track | Start | Length | Start sector | End sector
———————————————————
1 | 0:00.00 | 4:00.17 | 0 | 18016
2 | 4:00.17 | 0:49.31 | 18017 | 21722
3 | 4:49.48 | 6:28.30 | 21723 | 50852
4 | 11:18.03 | 9:42.21 | 50853 | 94523
5 | 21:00.24 | 5:53.28 | 94524 | 121026
6 | 26:53.52 | 3:43.46 | 121027 | 137797
7 | 30:37.23 | 4:16.16 | 137798 | 157013
8 | 34:53.39 | 8:44.09 | 157014 | 196322

Track 1

Filename C:\EAC\01 – Hole In The Sky.wav

Pre-gap length 0:00:02.00

Peak level 97.0 %
Extraction speed 2.5 X
Track quality 100.0 %
Test CRC F7029952
Copy CRC F7029952
Accurately ripped (confidence 1) [6A86B314] (AR v2)
Copy OK

Track 2

Filename C:\EAC\02 – Don’t Start (Too Late).wav

Peak level 16.1 %
Extraction speed 1.7 X
Track quality 100.0 %
Test CRC 791403C4
Copy CRC 791403C4
Accurately ripped (confidence 1) [74CD50C2] (AR v2)
Copy OK

Track 3

Filename C:\EAC\03 – Symptom Of The Universe.wav

Peak level 90.5 %
Extraction speed 2.8 X
Track quality 99.9 %
Test CRC F89A3BEB
Copy CRC F89A3BEB
Accurately ripped (confidence 1) [C4BF9106] (AR v2)
Copy OK

Track 4

Filename C:\EAC\04 – Megalomania.wav

Peak level 97.0 %
Extraction speed 3.8 X
Track quality 100.0 %
Test CRC 88476354
Copy CRC 88476354
Accurately ripped (confidence 1) [CE33CE80] (AR v2)
Copy OK

Track 5

Filename C:\EAC\05 – The Thrill Of It All.wav

Peak level 97.0 %
Extraction speed 4.0 X
Track quality 100.0 %
Test CRC 7AC3CC13
Copy CRC 7AC3CC13
Accurately ripped (confidence 1) [C95FA6EA] (AR v2)
Copy OK

Track 6

Filename C:\EAC\06 – Supertzar.wav

Peak level 79.1 %
Extraction speed 3.8 X
Track quality 100.0 %
Test CRC F7CA283F
Copy CRC F7CA283F
Accurately ripped (confidence 1) [550F70A6] (AR v2)
Copy OK

Track 7

Filename C:\EAC\07 – Am I Going Insane (Radio).wav

Peak level 96.8 %
Extraction speed 4.0 X
Track quality 100.0 %
Test CRC DA7A547C
Copy CRC DA7A547C
Accurately ripped (confidence 1) [1750C77E] (AR v2)
Copy OK

Track 8

Filename C:\EAC\08 – The Writ.wav

Peak level 97.0 %
Extraction speed 4.6 X
Track quality 100.0 %
Test CRC 03192F8E
Copy CRC 03192F8E
Accurately ripped (confidence 1) [919F4722] (AR v2)
Copy OK

All tracks accurately ripped

No errors occurred

End of status report

—- CUETools DB Plugin V2.1.3

[CTDB TOCID: QUHWkvzq5mTMepOFMdLZS7rx4hw-] found, Submit result: QUHWkvzq5mTMepOFMdLZS7rx4hw- has been confirmed
[f9c51afd] (13/13) Accurately ripped

==== Log checksum 9579098D94B352D4241643AF9F255B10D5767B20F42E7B7E672E8022DAB4A640 ====

REM GENRE “Heavy Rock”
REM DATE 2016
REM DISCID 610A3908
REM COMMENT “ExactAudioCopy v1.0b3”
CATALOG 0081227946579
PERFORMER “Black Sabbath”
TITLE “Sabotage”
FILE “01 – Hole In The Sky.wav” WAVE
TRACK 01 AUDIO
TITLE “Hole In The Sky”
PERFORMER “Black Sabbath”
ISRC GBAJE7500016
INDEX 01 00:00:00
FILE “02 – Don’t Start (Too Late).wav” WAVE
TRACK 02 AUDIO
TITLE “Don’t Start (Too Late)”
PERFORMER “Black Sabbath”
ISRC GBAJE7500017
INDEX 01 00:00:00
FILE “03 – Symptom Of The Universe.wav” WAVE
TRACK 03 AUDIO
TITLE “Symptom Of The Universe”
PERFORMER “Black Sabbath”
ISRC GBAJE7500017
INDEX 01 00:00:00
FILE “04 – Megalomania.wav” WAVE
TRACK 04 AUDIO
TITLE “Megalomania”
PERFORMER “Black Sabbath”
ISRC GBAJE7500019
INDEX 01 00:00:00
FILE “05 – The Thrill Of It All.wav” WAVE
TRACK 05 AUDIO
TITLE “The Thrill Of It All”
PERFORMER “Black Sabbath”
ISRC GBAJE7500019
INDEX 01 00:00:00
FILE “06 – Supertzar.wav” WAVE
TRACK 06 AUDIO
TITLE “Supertzar”
PERFORMER “Black Sabbath”
ISRC GBAJE7500020
INDEX 01 00:00:00
FILE “07 – Am I Going Insane (Radio).wav” WAVE
TRACK 07 AUDIO
TITLE “Am I Going Insane (Radio)”
PERFORMER “Black Sabbath”
ISRC GBAJE7500022
INDEX 01 00:00:00
FILE “08 – The Writ.wav” WAVE
TRACK 08 AUDIO
TITLE “The Writ”
PERFORMER “Black Sabbath”
ISRC GBAJE7500022
INDEX 01 00:00:00


Leave a Reply

Your email address will not be published. Required fields are marked *

Enter the text from the image below
 

This site uses Akismet to reduce spam. Learn how your comment data is processed.