Black Sabbath – Sabotage (Limited Remastered Edition)




Artist: Black Sabbath
Year: 1975/2010
Genre: Rock
Notes: Discogs
Add. Notes: Limited Remastered Edition
Cover incl.: Yes
Encoder: FLAC
Bitrate: ~900 kBit/s (44.1 kHz/16 Bit/s)
Log & Cue incl.: Yes
Size: 297,13 MB
Password: “slam” (without ” “)


All Downloads/Hosters are compatible

Download 1
NitroFlare.com
KatFile.com
Turbobit.net
Rapidgator.net
UploadRar.com
Download 2
NitroFlare.com
KatFile.com
Turbobit.net
Rapidgator.net
UploadRar.com

Tracklist:

1 - Hole In The Sky - 4:00
2 - Don't Start (Too Late) - 0:49
3 - Symptom Of The Universe - 6:30
4 - Megalomania - 9:43
5 - Thrill Of It All - 5:56
6 - Supertzar - 3:44
7 - Am I Going Insane (Radio) - 4:17
8 - The Writ - 8:43

EAC-Log, CUE-Sheed & NFO:

Click to open spoiler
Exact Audio Copy V0.99 prebeta 5 from 4. May 2009

Отчёт EAC об извлечении, выполненном 22. декабря 2010, 23:30

Black Sabbath / Sabotage

Дисковод: HL-DT-STDVDRAM GSA-H60N Adapter: 2 ID: 0

Режим чтения : Достоверность
Использование точного потока : Да
Отключение кэша аудио : Да
Использование указателей C2 : Нет

Коррекция смещения при чтении : 667
Способность читать области Lead-in и Lead-out : Нет
Заполнение пропущенных сэмплов тишиной : Да
Удаление блоков с тишиной в начале и конце : Нет
При вычислениях CRC использовались нулевые сэмплы : Да
Интерфейс : Встроенный Win32-интерфейс для Win NT/2000

Выходной формат : Внутренние WAV-операции
Формат сэмплов : 44.100 Гц; 16 бит; стерео

TOC извлечённого CD

Трек | Старт | Длительность | Начальный сектор | Конечный сектор
———————————————————————
1 | 0:00.00 | 4:00.24 | 0 | 18023
2 | 4:00.24 | 0:49.32 | 18024 | 21730
3 | 4:49.56 | 6:29.20 | 21731 | 50925
4 | 11:19.01 | 9:43.24 | 50926 | 94674
5 | 21:02.25 | 5:55.50 | 94675 | 121349
6 | 26:58.00 | 3:43.60 | 121350 | 138134
7 | 30:41.60 | 4:16.30 | 138135 | 157364
8 | 34:58.15 | 8:44.30 | 157365 | 196694

Характеристики диапазона извлечения и сообщения об ошибках

Выбранный диапазон

Имя файла C:\Documents and Settings\Администратор\Рабочий стол\Lossless Galaxy Rip by ALLexxess\2010 The Complete Ozzy Years (13CD Box Set Sanctuary Records)\1975 Sabotage\Black Sabbath – Sabotage.wav

Пиковый уровень 98.4 %
Качество диапазона 100.0 %
CRC теста 19CD0802
CRC копии 19CD0802
Копирование… OK

Ошибок не произошло

AccurateRip: сводка

Трек 1 точность не определена (достоверность 17) [5FEFC17A], AccurateRip вернул [99461D63]
Трек 2 точность не определена (достоверность 16) [51DEBBCF], AccurateRip вернул [7DFBA3D2]
Трек 3 точность не определена (достоверность 17) [DE365360], AccurateRip вернул [D4C0A525]
Трек 4 точность не определена (достоверность 17) [2B8C62B9], AccurateRip вернул [109A6A74]
Трек 5 точность не определена (достоверность 17) [AF5C2AE7], AccurateRip вернул [3AFA6AA5]
Трек 6 точность не определена (достоверность 17) [3A90C382], AccurateRip вернул [12750E17]
Трек 7 точность не определена (достоверность 17) [2C51363F], AccurateRip вернул [FC893B3C]
Трек 8 точность не определена (достоверность 17) [FF1E21D2], AccurateRip вернул [065235B0]

Ни один трек не прошёл проверки на точность
В вашей базе может быть иной вариант штамповки диска

Конец отчёта

REM GENRE “Hard Rock / Heavy Metal”
REM DATE 1975
REM DISCID 4E0A3E08
REM COMMENT “ExactAudioCopy v0.99pb5”
PERFORMER “Black Sabbath”
TITLE “Sabotage”
FILE “Black Sabbath – Sabotage.wav” WAVE
TRACK 01 AUDIO
TITLE “Hole In The Sky”
PERFORMER “Black Sabbath”
INDEX 01 00:00:00
TRACK 02 AUDIO
TITLE “Don’t Start (Too Late)”
PERFORMER “Black Sabbath”
INDEX 01 04:00:24
TRACK 03 AUDIO
TITLE “Symptom Of The Universe”
PERFORMER “Black Sabbath”
INDEX 00 04:49:55
INDEX 01 04:49:56
TRACK 04 AUDIO
TITLE “Megalomania”
PERFORMER “Black Sabbath”
INDEX 00 11:19:00
INDEX 01 11:19:01
TRACK 05 AUDIO
TITLE “Thrill Of It All”
PERFORMER “Black Sabbath”
INDEX 00 21:00:23
INDEX 01 21:02:25
TRACK 06 AUDIO
TITLE “Supertzar”
PERFORMER “Black Sabbath”
INDEX 00 26:57:74
INDEX 01 26:58:00
TRACK 07 AUDIO
TITLE “Am I Going Insane (Radio)”
PERFORMER “Black Sabbath”
INDEX 00 30:41:59
INDEX 01 30:41:60
TRACK 08 AUDIO
TITLE “The Writ”
PERFORMER “Black Sabbath”
INDEX 00 34:58:14
INDEX 01 34:58:15


Leave a Reply

Your email address will not be published. Required fields are marked *

This site uses Akismet to reduce spam. Learn how your comment data is processed.