Black Sabbath – Sabbath Bloody Sabbath




Artist: Black Sabbath
Year: 1973/1999
Genre: Rock
Notes: Discogs
Add. Notes:
Cover incl.: Yes
Encoder: FLAC
Bitrate: ~900 kBit/s (44.1 kHz/16 Bit/s)
Log & Cue incl.: Yes
Size: 284,06 MB
Password: “slam” (without ” “)


All Downloads/Hosters are compatible

Download 1
Turbobit.net
KatFile.com
Rapidgator.net
Download 2
Turbobit.net
KatFile.com
Rapidgator.net

Tracklist:

1 - Sabbath Bloody Sabbath - 5:45
2 - A National Acrobat - 6:13
3 - Fluff - 4:09
4 - Sabbra Cadabra - 5:58
5 - Killing Yourself To Live - 5:42
6 - Who Are You - 4:10
7 - Looking For Today - 5:02
8 - Spiral Architect - 5:32 

EAC-Log, CUE-Sheed & NFO:

Click to open spoiler
Exact Audio Copy V1.3 from 2. September 2016

EAC extraction logfile from 21. June 2017, 15:28

Black Sabbath / Sabbath Bloody Sabbath (6005-2)

Used drive : hp DVDRAM GT80N Adapter: 1 ID: 0

Read mode : Secure
Utilize accurate stream : Yes
Defeat audio cache : Yes
Make use of C2 pointers : No

Read offset correction : 102
Overread into Lead-In and Lead-Out : No
Fill up missing offset samples with silence : Yes
Delete leading and trailing silent blocks : No
Null samples used in CRC calculations : Yes
Used interface : Native Win32 interface for Win NT & 2000

Used output format : User Defined Encoder
Selected bitrate : 1024 kBit/s
Quality : High
Add ID3 tag : No
Command line compressor : C:\Program Files (x86)\Exact Audio Copy\Flac\flac.exe
Additional command line options : -V -8 -T “Date=%year%” -T “Genre=%genre%” %source%

TOC of the extracted CD

Track | Start | Length | Start sector | End sector
———————————————————
1 | 0:00.00 | 5:46.32 | 0 | 25981
2 | 5:46.32 | 6:17.73 | 25982 | 54329
3 | 12:04.30 | 4:12.02 | 54330 | 73231
4 | 16:16.32 | 5:58.45 | 73232 | 100126
5 | 22:15.02 | 5:41.20 | 100127 | 125721
6 | 27:56.22 | 4:15.45 | 125722 | 144891
7 | 32:11.67 | 5:30.05 | 144892 | 169646
8 | 37:41.72 | 5:00.48 | 169647 | 192194

Range status and errors

Selected range

Filename H:\dafnaplus\2. Sabbath Bloody Sabbath\Black Sabbath – Sabbath Bloody Sabbath (6005-2).wav

Peak level 85.4 %
Extraction speed 4.0 X
Range quality 100.0 %
Test CRC E109EDDF
Copy CRC E109EDDF
Copy OK

No errors occurred

AccurateRip summary

Track 1 cannot be verified as accurate (confidence 5) [73BDC741], AccurateRip returned [E9EA7EA4] (AR v2)
Track 2 cannot be verified as accurate (confidence 5) [F2E73A13], AccurateRip returned [32283DF7] (AR v2)
Track 3 cannot be verified as accurate (confidence 6) [C868F05F], AccurateRip returned [E0FAB96E] (AR v2)
Track 4 cannot be verified as accurate (confidence 3) [7D48A131], AccurateRip returned [9BE9A379] (AR v2)
Track 5 cannot be verified as accurate (confidence 5) [DDE63515], AccurateRip returned [3C3DF12D] (AR v2)
Track 6 cannot be verified as accurate (confidence 5) [07242012], AccurateRip returned [BAD2DC31] (AR v2)
Track 7 cannot be verified as accurate (confidence 5) [20D12B4D], AccurateRip returned [0ECF6358] (AR v2)
Track 8 cannot be verified as accurate (confidence 4) [BAAB8A3B], AccurateRip returned [5C5B5406] (AR v2)

No tracks could be verified as accurate
You may have a different pressing from the one(s) in the database

End of status report

—- CUETools DB Plugin V2.1.6

[CTDB TOCID: UoOeFPlHwt9bWKfQp7aPEUSVLug-] found
Submit result: already submitted
Track | CTDB Status
1 | (25/30) Accurately ripped
2 | (25/30) Accurately ripped
3 | (25/30) Accurately ripped
4 | ( 2/30) Accurately ripped, or (4/30) differs in 315 samples @05:43:11,05:43:26-05:43:27,05:43:40-05:43:41
5 | (23/30) Accurately ripped
6 | (25/30) Accurately ripped
7 | (24/30) Accurately ripped
8 | (12/30) Accurately ripped
If you are sure that your rip contains errors, you can use CUETools to repair it.

==== Log checksum 92D18D6E822E42ED4D190DC43B684DB8BA166807BF11AF63353ACD914CD160F0 ====

REM GENRE “Hard Rock”
REM DATE 1999
REM DISCID 790A0208
REM COMMENT “ExactAudioCopy v1.3”
PERFORMER “Black Sabbath”
TITLE “Sabbath Bloody Sabbath (6005-2)”
REM COMPOSER “”
FILE “Black Sabbath – Sabbath Bloody Sabbath (6005-2).flac” WAVE
TRACK 01 AUDIO
TITLE “Sabbath Bloody Sabbath”
PERFORMER “Black Sabbath”
REM COMPOSER “”
INDEX 01 00:00:00
TRACK 02 AUDIO
TITLE “A National Acrobat”
PERFORMER “Black Sabbath”
REM COMPOSER “”
INDEX 00 05:44:32
INDEX 01 05:46:32
TRACK 03 AUDIO
TITLE “Fluff”
PERFORMER “Black Sabbath”
REM COMPOSER “”
INDEX 00 12:02:30
INDEX 01 12:04:30
TRACK 04 AUDIO
TITLE “Sabbra Cadabra”
PERFORMER “Black Sabbath”
REM COMPOSER “”
INDEX 00 16:14:32
INDEX 01 16:16:32
TRACK 05 AUDIO
TITLE “Killing Yourself To Live”
PERFORMER “Black Sabbath”
REM COMPOSER “”
INDEX 00 22:13:02
INDEX 01 22:15:02
TRACK 06 AUDIO
TITLE “Who Are You?”
PERFORMER “Black Sabbath”
REM COMPOSER “”
INDEX 00 27:54:22
INDEX 01 27:56:22
TRACK 07 AUDIO
TITLE “Spiral Architect”
PERFORMER “Black Sabbath”
REM COMPOSER “”
INDEX 00 32:09:67
INDEX 01 32:11:67
TRACK 08 AUDIO
TITLE “Looking For Today”
PERFORMER “Black Sabbath”
REM COMPOSER “”
INDEX 00 37:39:72
INDEX 01 37:41:72


Leave a Reply

Your email address will not be published. Required fields are marked *

This site uses Akismet to reduce spam. Learn how your comment data is processed.