Black Sabbath – Sabbath Bloody Sabbath (Limited Remastered Edition)




[Total: 0    Average: 0/5]

Artist: Black Sabbath
Year: 1973/2010
Genre: Metal
Notes: Discogs
Add. Notes: Limited Remastered Edition
Cover incl.: Yes
Encoder: FLAC
Bitrate: ~900 kBit/s (44.1 kHz/16 Bit/s)
Log & Cue incl.: Yes
Size: 299,73 MB
Password: “slam” (without ” “)


All Downloads/Hosters are compatible

Download 1
Share-online.biz
KatFile.com
Rapidgator.net
Download 2
Share-online.biz
KatFile.com
Rapidgator.net

Tracklist:

1 - Sabbath Bloody Sabbath - 5:45
2 - A National Acrobat - 6:13
3 - Fluff - 4:09
4 - Sabbra Cadabra - 5:58
5 - Killing Yourself To Live - 5:42
6 - Who Are You - 4:10
7 - Looking For Today - 5:02
8 - Spiral Architect - 5:32 

EAC-Log, CUE-Sheed & NFO:

Click to open spoiler
Exact Audio Copy V0.99 prebeta 5 from 4. May 2009

Отчёт EAC об извлечении, выполненном 22. декабря 2010, 22:49

Black Sabbath / Sabbath Bloody Sabbath

Дисковод: HL-DT-STDVDRAM GSA-H60N Adapter: 2 ID: 0

Режим чтения : Достоверность
Использование точного потока : Да
Отключение кэша аудио : Да
Использование указателей C2 : Нет

Коррекция смещения при чтении : 667
Способность читать области Lead-in и Lead-out : Нет
Заполнение пропущенных сэмплов тишиной : Да
Удаление блоков с тишиной в начале и конце : Нет
При вычислениях CRC использовались нулевые сэмплы : Да
Интерфейс : Встроенный Win32-интерфейс для Win NT/2000

Выходной формат : Внутренние WAV-операции
Формат сэмплов : 44.100 Гц; 16 бит; стерео

TOC извлечённого CD

Трек | Старт | Длительность | Начальный сектор | Конечный сектор
———————————————————————
1 | 0:00.00 | 5:46.46 | 0 | 25995
2 | 5:46.46 | 6:15.49 | 25996 | 54169
3 | 12:02.20 | 4:13.29 | 54170 | 73173
4 | 16:15.49 | 5:58.56 | 73174 | 100079
5 | 22:14.30 | 5:40.13 | 100080 | 125592
6 | 27:54.43 | 4:10.73 | 125593 | 144415
7 | 32:05.41 | 4:59.24 | 144416 | 166864
8 | 37:04.65 | 5:29.34 | 166865 | 191573

Характеристики диапазона извлечения и сообщения об ошибках

Выбранный диапазон

Имя файла C:\Documents and Settings\Администратор\Рабочий стол\Lossless Galaxy Rip by ALLexxess\2010 The Complete Ozzy Years (13CD Box Set Sanctuary Records)\1973 Sabbath Bloody Sabbath\Black Sabbath – Sabbath Bloody Sabbath.wav

Пиковый уровень 98.8 %
Качество диапазона 100.0 %
CRC теста E75D73B4
CRC копии E75D73B4
Копирование… OK

Ошибок не произошло

AccurateRip: сводка

Трек 1 точность не определена (достоверность 18) [BE54E7EA], AccurateRip вернул [470EBAE0]
Трек 2 точность не определена (достоверность 19) [14AD1593], AccurateRip вернул [B72121E5]
Трек 3 точность не определена (достоверность 18) [770C4C34], AccurateRip вернул [E29A9A69]
Трек 4 точность не определена (достоверность 20) [4229BD76], AccurateRip вернул [34166A97]
Трек 5 точность не определена (достоверность 19) [B13E2556], AccurateRip вернул [372A8571]
Трек 6 точность не определена (достоверность 19) [C3DF0CE1], AccurateRip вернул [C981CF16]
Трек 7 точность не определена (достоверность 19) [486F57AB], AccurateRip вернул [9D095C58]
Трек 8 точность не определена (достоверность 19) [E509AA44], AccurateRip вернул [CB24EE97]

Ни один трек не прошёл проверки на точность
В вашей базе может быть иной вариант штамповки диска

Конец отчёта

REM GENRE “Hard Rock / Heavy Metal”
REM DATE 1973
REM DISCID 7509FA08
REM COMMENT “ExactAudioCopy v0.99pb5”
PERFORMER “Black Sabbath”
TITLE “Sabbath Bloody Sabbath”
FILE “Black Sabbath – Sabbath Bloody Sabbath.wav” WAVE
TRACK 01 AUDIO
TITLE “Sabbath Bloody Sabbath”
PERFORMER “Black Sabbath”
INDEX 01 00:00:00
TRACK 02 AUDIO
TITLE “A National Acrobat”
PERFORMER “Black Sabbath”
INDEX 00 05:45:05
INDEX 01 05:46:46
TRACK 03 AUDIO
TITLE “Fluff”
PERFORMER “Black Sabbath”
INDEX 00 12:01:74
INDEX 01 12:02:20
TRACK 04 AUDIO
TITLE “Sabbra Cadabra”
PERFORMER “Black Sabbath”
INDEX 00 16:10:21
INDEX 01 16:15:49
TRACK 05 AUDIO
TITLE “Killing Yourself To Live”
PERFORMER “Black Sabbath”
INDEX 00 22:11:30
INDEX 01 22:14:30
TRACK 06 AUDIO
TITLE “Who Are You”
PERFORMER “Black Sabbath”
INDEX 01 27:54:43
TRACK 07 AUDIO
TITLE “Looking For Today”
PERFORMER “Black Sabbath”
INDEX 01 32:05:41
TRACK 08 AUDIO
TITLE “Spiral Architect”
PERFORMER “Black Sabbath”
INDEX 00 37:04:11
INDEX 01 37:04:65


Spread the Download

Leave a Reply

Your email address will not be published. Required fields are marked *

Enter the text from the image below
 

This site uses Akismet to reduce spam. Learn how your comment data is processed.