Black Sabbath – Paranoid




Artist: Black Sabbath
Year: 2001
Genre: Rock
Notes: Discogs
Add. Notes:
Cover incl.: Yes
Encoder: FLAC
Bitrate: ~800 kBit/s (44.1 kHz/16 Bit/s)
Log & Cue incl.: Yes
Size: 272,11 MB
Password: “slam” (without ” “)


All Downloads/Hosters are compatible

Download 1
Turbobit.net
NitroFlare.com
KatFile.com
Rapidgator.net
Download 2
Turbobit.net
NitroFlare.com
KatFile.com
Rapidgator.net

Tracklist:

1. War Pigs 
2. Paranoid 
3. Planet Caravan 
4. Iron Man 
5. Electric Funeral 
6. Hand Of Doom 
7. Jack The Stripper / Fairies Wear Boots 
8. Rat Salad

EAC-Log, CUE-Sheed & NFO:

Click to open spoiler
Exact Audio Copy V1.3 from 2. September 2016

EAC extraction logfile from 21. June 2017, 14:55

Black Sabbath / Paranoid (6007-2)

Used drive : hp DVDRAM GT80N Adapter: 1 ID: 0

Read mode : Secure
Utilize accurate stream : Yes
Defeat audio cache : Yes
Make use of C2 pointers : No

Read offset correction : 102
Overread into Lead-In and Lead-Out : No
Fill up missing offset samples with silence : Yes
Delete leading and trailing silent blocks : No
Null samples used in CRC calculations : Yes
Used interface : Native Win32 interface for Win NT & 2000

Used output format : User Defined Encoder
Selected bitrate : 1024 kBit/s
Quality : High
Add ID3 tag : No
Command line compressor : C:\Program Files (x86)\Exact Audio Copy\Flac\flac.exe
Additional command line options : -V -8 -T “Date=%year%” -T “Genre=%genre%” %source%

TOC of the extracted CD

Track | Start | Length | Start sector | End sector
———————————————————
1 | 0:00.00 | 7:57.07 | 0 | 35781
2 | 7:57.07 | 2:50.30 | 35782 | 48561
3 | 10:47.37 | 4:30.23 | 48562 | 68834
4 | 15:17.60 | 5:56.27 | 68835 | 95561
5 | 21:14.12 | 4:51.58 | 95562 | 117444
6 | 26:05.70 | 7:11.55 | 117445 | 149824
7 | 33:17.50 | 6:14.67 | 149825 | 177941
8 | 39:32.42 | 2:28.30 | 177942 | 189071

Range status and errors

Selected range

Filename H:\dafnaplus\3. Paranoid\Black Sabbath – Paranoid (6007-2).wav

Peak level 100.0 %
Extraction speed 4.0 X
Range quality 100.0 %
Test CRC ACAD9D2A
Copy CRC ACAD9D2A
Copy OK

No errors occurred

AccurateRip summary

Track 1 accurately ripped (confidence 2) [5359CE9A] (AR v2)
Track 2 accurately ripped (confidence 2) [DE7E75A7] (AR v2)
Track 3 accurately ripped (confidence 2) [B3435829] (AR v2)
Track 4 accurately ripped (confidence 2) [EFDB303C] (AR v2)
Track 5 accurately ripped (confidence 2) [C283414D] (AR v2)
Track 6 accurately ripped (confidence 2) [32F3B66F] (AR v2)
Track 7 accurately ripped (confidence 2) [1CDC0295] (AR v2)
Track 8 accurately ripped (confidence 2) [0A30BD86] (AR v2)

All tracks accurately ripped

End of status report

—- CUETools DB Plugin V2.1.6

[CTDB TOCID: GSWmheRVF2aairPp9tt6RSpF3WQ-] found
Submit result: already submitted
Track | CTDB Status
1 | (46/57) Accurately ripped
2 | (51/57) Accurately ripped
3 | (52/57) Accurately ripped
4 | (49/57) Accurately ripped
5 | (50/57) Accurately ripped
6 | (51/57) Accurately ripped
7 | (52/57) Accurately ripped
8 | (49/57) Accurately ripped

==== Log checksum 90E7C9D9756207CEB172EF72338BE465A27D250BE45DDEC9AEF6962154F206CE ====

REM GENRE “Hard Rock”
REM DATE 1999
REM DISCID 8B09D808
REM COMMENT “ExactAudioCopy v1.3”
PERFORMER “Black Sabbath”
TITLE “Paranoid (6007-2)”
REM COMPOSER “”
FILE “Black Sabbath – Paranoid (6007-2).flac” WAVE
TRACK 01 AUDIO
TITLE “War Pigs”
PERFORMER “Black Sabbath”
REM COMPOSER “”
INDEX 01 00:00:00
TRACK 02 AUDIO
TITLE “Paranoid”
PERFORMER “Black Sabbath”
REM COMPOSER “”
INDEX 01 07:57:07
TRACK 03 AUDIO
TITLE “Planet Caravan”
PERFORMER “Black Sabbath”
REM COMPOSER “”
INDEX 01 10:47:37
TRACK 04 AUDIO
TITLE “Iron Man”
PERFORMER “Black Sabbath”
REM COMPOSER “”
INDEX 01 15:17:60
TRACK 05 AUDIO
TITLE “Electric Funeral”
PERFORMER “Black Sabbath”
REM COMPOSER “”
INDEX 01 21:14:12
TRACK 06 AUDIO
TITLE “Hand Of Doom”
PERFORMER “Black Sabbath”
REM COMPOSER “”
INDEX 01 26:05:70
TRACK 07 AUDIO
TITLE “Jack The Stripper/Fairies Wear Boots”
PERFORMER “Black Sabbath”
REM COMPOSER “”
INDEX 01 33:17:50
TRACK 08 AUDIO
TITLE “Rat Salad”
PERFORMER “Black Sabbath”
REM COMPOSER “”
INDEX 01 39:32:42


Leave a Reply

Your email address will not be published. Required fields are marked *

This site uses Akismet to reduce spam. Learn how your comment data is processed.