Black Sabbath – Paranoid (Reissue)




Artist: Black Sabbath
Year: 1970/1987
Genre: Metal
Notes: Discogs
Add. Notes: Reissue
Cover incl.: Yes
Encoder: FLAC
Bitrate: ~800 kBit/s (44.1 kHz/16 Bit/s)
Log & Cue incl.: Yes
Size: 744,03 MB
Password: “slam” (without ” “)


All Downloads/Hosters are compatible

Download 1
Turbobit.net
Rapidgator.net
KatFile.com
UploadRar.com
Download 2
Turbobit.net
Rapidgator.net
KatFile.com
UploadRar.com
Download 3
Turbobit.net
Rapidgator.net
KatFile.com
UploadRar.com

Tracklist:

1 - War Pigs - 7:55
2 - Paranoid - 2:47
3 - Planet Caravan - 4:24
4 - Iron Man - 5:53
5 - Electric Funeral - 4:47
6 - Hand Of Doom - 7:07
7 - Rat Salad - 2:29
8 - Fairies Wear Boots - 6:13
9 - Wicked World (Live) - 18:51

EAC-Log, CUE-Sheed & NFO:

Click to open spoiler
Exact Audio Copy V0.99 prebeta 5 from 4. May 2009

Отчёт EAC об извлечении, выполненном 11. августа 2011, 18:16

Black Sabbath / Paranoid [NELCD-6003]

Дисковод: HL-DT-STDVDRAM GT30N Adapter: 0 ID: 0

Режим чтения : Достоверность
Использование точного потока : Да
Отключение кэша аудио : Да
Использование указателей C2 : Нет

Коррекция смещения при чтении : 103
Способность читать области Lead-in и Lead-out : Нет
Заполнение пропущенных сэмплов тишиной : Да
Удаление блоков с тишиной в начале и конце : Нет
При вычислениях CRC использовались нулевые сэмплы : Да
Интерфейс : Встроенный Win32-интерфейс для Win NT/2000

Выходной формат : Пользовательский кодировщик
Выбранный битрейт : 128 kBit/s
Качество : Высокий
Добавление ID3-тэга : Нет
Утилита сжатия : C:\Program Files (x86)\Exact Audio Copy\Flac\flac.exe
Дополнительные параметры : -8 -V -T “artist=%a” -T “title=%t” -T “album=%g” -T “date=%y” -T “tracknumber=%n” -T “genre=%m” -T “comment=EAC

TOC извлечённого CD

Трек | Старт | Длительность | Начальный сектор | Конечный сектор
———————————————————————
1 | 0:00.37 | 7:56.25 | 37 | 35761
2 | 7:56.62 | 2:49.00 | 35762 | 48436
3 | 10:45.62 | 4:25.35 | 48437 | 68346
4 | 15:11.22 | 5:55.18 | 68347 | 94989
5 | 21:06.40 | 4:49.65 | 94990 | 116729
6 | 25:56.30 | 7:07.70 | 116730 | 148824
7 | 33:04.25 | 2:30.30 | 148825 | 160104
8 | 35:34.55 | 6:14.60 | 160105 | 188214
9 | 41:49.40 | 18:51.70 | 188215 | 273109

Характеристики диапазона извлечения и сообщения об ошибках

Выбранный диапазон

Имя файла Y:\Музыка\Black Sabbath\1970 Paranoid\Black Sabbath – Paranoid [NELCD-6003].wav

Пиковый уровень 99.3 %
Качество диапазона 100.0 %
CRC теста 692E29C2
CRC копии 692E29C2
Копирование… OK

Ошибок не произошло

AccurateRip: сводка

Трек 1 точное извлечение (доверие 3) [343A8AB6]
Трек 2 точное извлечение (доверие 3) [528F372D]
Трек 3 точное извлечение (доверие 3) [DDD8AF70]
Трек 4 точное извлечение (доверие 3) [A5CDDBF0]
Трек 5 точное извлечение (доверие 2) [BE3523E9]
Трек 6 точное извлечение (доверие 3) [25AE2938]
Трек 7 точное извлечение (доверие 3) [CA3D6552]
Трек 8 точное извлечение (доверие 2) [2912B945]
Трек 9 точное извлечение (доверие 2) [5C1E9AE7]

Все треки извлечены точно

Конец отчёта

REM GENRE “Heavy Metal”
REM DATE 1970
REM DISCID 840E3909
REM COMMENT “ExactAudioCopy v0.99pb5”
PERFORMER “Black Sabbath”
TITLE “Paranoid [NELCD-6003]”
FILE “Black Sabbath – Paranoid [NELCD-6003].flac” WAVE
TRACK 01 AUDIO
TITLE “War Pigs”
PERFORMER “Black Sabbath”
INDEX 00 00:00:00
INDEX 01 00:00:37
TRACK 02 AUDIO
TITLE “Paranoid”
PERFORMER “Black Sabbath”
INDEX 00 07:55:57
INDEX 01 07:56:62
TRACK 03 AUDIO
TITLE “Planet Caravan”
PERFORMER “Black Sabbath”
INDEX 00 10:44:44
INDEX 01 10:45:62
TRACK 04 AUDIO
TITLE “Iron Man”
PERFORMER “Black Sabbath”
INDEX 00 15:09:64
INDEX 01 15:11:22
TRACK 05 AUDIO
TITLE “Electric Funeral”
PERFORMER “Black Sabbath”
INDEX 00 21:04:64
INDEX 01 21:06:40
TRACK 06 AUDIO
TITLE “Hand Of Doom”
PERFORMER “Black Sabbath”
INDEX 00 25:54:37
INDEX 01 25:56:30
TRACK 07 AUDIO
TITLE “Rat Salad”
PERFORMER “Black Sabbath”
INDEX 00 33:04:24
INDEX 01 33:04:25
TRACK 08 AUDIO
TITLE “Fairies Wear Boots”
PERFORMER “Black Sabbath”
INDEX 00 35:33:27
INDEX 01 35:34:55
TRACK 09 AUDIO
TITLE “Wicked World (live)”
PERFORMER “Black Sabbath”
INDEX 00 41:48:02
INDEX 01 41:49:40


Leave a Reply

Your email address will not be published. Required fields are marked *

This site uses Akismet to reduce spam. Learn how your comment data is processed.