Black Sabbath – Paranoid (Limited Remastered Edition)




Artist: Black Sabbath
Year: 1970/2010
Genre: Metal
Notes: Discogs
Add. Notes: Limited Remastered Edition
Cover incl.: Yes
Encoder: FLAC
Bitrate: ~900 kBit/s (44.1 kHz/16 Bit/s)
Log & Cue incl.: Yes
Size: 289,92 MB
Password: “slam” (without ” “)


All Downloads/Hosters are compatible

Download 1
Turbobit.net
Rapidgator.net
KatFile.com
UploadRar.com
Download 2
Turbobit.net
Rapidgator.net
KatFile.com
UploadRar.com

Tracklist:

1 - War Pigs - 7:55
2 - Paranoid - 2:47
3 - Planet Caravan - 4:24
4 - Iron Man - 5:53
5 - Electric Funeral - 4:47
6 - Hand Of Doom - 7:07
7 - Rat Salad - 2:29
8 - Fairies Wear Boots - 6:13

EAC-Log, CUE-Sheed & NFO:

Click to open spoiler
Exact Audio Copy V0.99 prebeta 5 from 4. May 2009

Отчёт EAC об извлечении, выполненном 22. декабря 2010, 0:13

Black Sabbath / Paranoid

Дисковод: HL-DT-STDVDRAM GSA-H60N Adapter: 2 ID: 0

Режим чтения : Достоверность
Использование точного потока : Да
Отключение кэша аудио : Да
Использование указателей C2 : Нет

Коррекция смещения при чтении : 667
Способность читать области Lead-in и Lead-out : Нет
Заполнение пропущенных сэмплов тишиной : Да
Удаление блоков с тишиной в начале и конце : Нет
При вычислениях CRC использовались нулевые сэмплы : Да
Интерфейс : Встроенный Win32-интерфейс для Win NT/2000

Выходной формат : Внутренние WAV-операции
Формат сэмплов : 44.100 Гц; 16 бит; стерео

TOC извлечённого CD

Трек | Старт | Длительность | Начальный сектор | Конечный сектор
———————————————————————
1 | 0:00.00 | 7:58.28 | 0 | 35877
2 | 7:58.28 | 2:53.66 | 35878 | 48918
3 | 10:52.19 | 4:33.54 | 48919 | 69447
4 | 15:25.73 | 5:56.61 | 69448 | 96208
5 | 21:22.59 | 4:52.64 | 96209 | 118172
6 | 26:15.48 | 7:07.47 | 118173 | 150244
7 | 33:23.20 | 2:30.53 | 150245 | 161547
8 | 35:53.73 | 6:13.65 | 161548 | 189587

Характеристики диапазона извлечения и сообщения об ошибках

Выбранный диапазон

Имя файла C:\Documents and Settings\Администратор\Рабочий стол\Lossless Galaxy Rip by ALLexxess\2010 The Complete Ozzy Years (13CD Box Set Sanctuary Records)\1970 Paranoid\Black Sabbath – Paranoid.wav

Пиковый уровень 97.7 %
Качество диапазона 100.0 %
CRC теста D764BCA7
CRC копии D764BCA7
Копирование… OK

Ошибок не произошло

AccurateRip: сводка

Трек 1 точность не определена (достоверность 85) [8F0E29DD], AccurateRip вернул [17EF77F2]
Трек 2 точность не определена (достоверность 84) [3C1E2C9C], AccurateRip вернул [A6F8D3E8]
Трек 3 точность не определена (достоверность 84) [DF5837E8], AccurateRip вернул [28AD9A4F]
Трек 4 точность не определена (достоверность 84) [3978FBF8], AccurateRip вернул [DF8FC88F]
Трек 5 точность не определена (достоверность 84) [B864F510], AccurateRip вернул [3CAA1AD8]
Трек 6 точность не определена (достоверность 83) [9DD5947A], AccurateRip вернул [EE363E55]
Трек 7 точность не определена (достоверность 83) [40FDE198], AccurateRip вернул [032F7B28]
Трек 8 точность не определена (достоверность 83) [F98508AD], AccurateRip вернул [7217D904]

Ни один трек не прошёл проверки на точность
В вашей базе может быть иной вариант штамповки диска

Конец отчёта

REM GENRE “Hard Rock / Heavy Metal”
REM DATE 2010
REM DISCID 6609DF08
REM COMMENT “ExactAudioCopy v0.99pb5”
PERFORMER “Black Sabbath”
TITLE “Paranoid”
FILE “Black Sabbath – Paranoid.wav” WAVE
TRACK 01 AUDIO
TITLE “War Pigs”
PERFORMER “Black Sabbath”
INDEX 01 00:00:00
TRACK 02 AUDIO
TITLE “Paranoid”
PERFORMER “Black Sabbath”
INDEX 00 07:54:74
INDEX 01 07:58:28
TRACK 03 AUDIO
TITLE “Planet Caravan”
PERFORMER “Black Sabbath”
INDEX 00 10:46:07
INDEX 01 10:52:19
TRACK 04 AUDIO
TITLE “Iron Man”
PERFORMER “Black Sabbath”
INDEX 00 15:21:37
INDEX 01 15:25:73
TRACK 05 AUDIO
TITLE “Electric Funeral”
PERFORMER “Black Sabbath”
INDEX 00 21:20:14
INDEX 01 21:22:59
TRACK 06 AUDIO
TITLE “Hand Of Doom”
PERFORMER “Black Sabbath”
INDEX 00 26:12:10
INDEX 01 26:15:48
TRACK 07 AUDIO
TITLE “Rat Salad”
PERFORMER “Black Sabbath”
INDEX 01 33:23:20
TRACK 08 AUDIO
TITLE “Fairies Wear Boots”
PERFORMER “Black Sabbath”
INDEX 00 35:52:45
INDEX 01 35:53:73


Leave a Reply

Your email address will not be published. Required fields are marked *

This site uses Akismet to reduce spam. Learn how your comment data is processed.