Black Sabbath & Ozzy Osbourne – The Very Best Of (Bootleg)




Artist: Black Sabbath & Ozzy Osbourne
Year: 2015
Genre: Rock
Notes: Bootleg
Encoder: FLAC
Bitrate: ~900 kBit/s (VBR)
Size: 519,63 MB
Password: “slam” (without ” “)


Crypted via FileCrypt.cc:

.

Crypted via Relink.to:

Tracklist:

01-N.I.B
02-Black Sabbath
03-War Pigs
04-Paranoid
05-Sweet Leaf
06-Changes
07-Sabbath Bloody Sabbath
08-Hole In The Sky
09-Symptom Of The Universe
10-You Won't Change Me
11-She Is Gone
12-Peace Of Mind
13-Age Of Reason
14-God Is Dead

EAC-Log, CUE-Sheed & NFO:

Click to open spoiler
Exact Audio Copy V0.99 prebeta 5 from 4. May 2009

EAC extraction logfile from 18. July 2015, 15:41

Black Sabbath & Ozzy Osbourne / The Very Best Of

Used drive : ASUS DRW-22B1LT Adapter: 3 ID: 0

Read mode : Secure
Utilize accurate stream : Yes
Defeat audio cache : Yes
Make use of C2 pointers : No

Read offset correction : 6
Overread into Lead-In and Lead-Out : No
Fill up missing offset samples with silence : Yes
Delete leading and trailing silent blocks : No
Null samples used in CRC calculations : Yes
Used interface : Installed external ASPI interface
Gap handling : Appended to previous track

Used output format : Internal WAV Routines
Sample format : 44.100 Hz; 16 Bit; Stereo

TOC of the extracted CD

Track | Start | Length | Start sector | End sector
———————————————————
1 | 0:00.00 | 5:38.18 | 0 | 25367
2 | 5:38.18 | 6:17.00 | 25368 | 53642
3 | 11:55.18 | 7:56.00 | 53643 | 89342
4 | 19:51.18 | 2:42.15 | 89343 | 101507
5 | 22:33.33 | 4:57.15 | 101508 | 123797
6 | 27:30.48 | 4:43.16 | 123798 | 145038
7 | 32:13.64 | 5:42.57 | 145039 | 170745
8 | 37:56.46 | 3:54.00 | 170746 | 188295
9 | 41:50.46 | 6:28.61 | 188296 | 217456
10 | 48:19.32 | 6:36.00 | 217457 | 247156
11 | 54:55.32 | 4:54.00 | 247157 | 269206
12 | 59:49.32 | 3:40.00 | 269207 | 285706
13 | 63:29.32 | 7:01.00 | 285707 | 317281
14 | 70:30.32 | 8:53.01 | 317282 | 357257

Track 1

Filename G:\ini003\01 – N.I.B.wav

Pre-gap length 0:00:02.00

Peak level 90.1 %
Track quality 100.0 %
Test CRC 0D4A1924
Copy CRC 0D4A1924
Copy OK

Track 2

Filename G:\ini003\02 – Black Sabbath.wav

Peak level 96.1 %
Track quality 100.0 %
Test CRC 6DBEDF35
Copy CRC 6DBEDF35
Copy OK

Track 3

Filename G:\ini003\03 – War Pigs.wav

Peak level 96.6 %
Track quality 100.0 %
Test CRC 3C1F656A
Copy CRC 3C1F656A
Copy OK

Track 4

Filename G:\ini003\04 – Paranoid.wav

Peak level 94.4 %
Track quality 100.0 %
Test CRC A1C4283D
Copy CRC A1C4283D
Copy OK

Track 5

Filename G:\ini003\05 – Sweet Leaf.wav

Peak level 96.6 %
Track quality 100.0 %
Test CRC 8A145991
Copy CRC 8A145991
Copy OK

Track 6

Filename G:\ini003\06 – Changes.wav

Peak level 86.3 %
Track quality 100.0 %
Test CRC 9D8FD77C
Copy CRC 9D8FD77C
Copy OK

Track 7

Filename G:\ini003\07 – Sabbath Bloody Sabbath.wav

Peak level 94.3 %
Track quality 100.0 %
Test CRC B034C1CA
Copy CRC B034C1CA
Copy OK

Track 8

Filename G:\ini003\08 – Hole In The Sky.wav

Peak level 96.6 %
Track quality 100.0 %
Test CRC 0002F145
Copy CRC 0002F145
Copy OK

Track 9

Filename G:\ini003\09 – Symptom Of The Universe.wav

Peak level 96.7 %
Track quality 100.0 %
Test CRC 882ED32A
Copy CRC 882ED32A
Copy OK

Track 10

Filename G:\ini003\10 – You Won’t Change Me.wav

Peak level 96.6 %
Track quality 100.0 %
Test CRC 0384E4A7
Copy CRC 0384E4A7
Copy OK

Track 11

Filename G:\ini003\11 – She Is Gone.wav

Peak level 95.9 %
Track quality 100.0 %
Test CRC 8B5DAD39
Copy CRC 8B5DAD39
Copy OK

Track 12

Filename G:\ini003\12 – Peace Of Mind.wav

Peak level 96.1 %
Track quality 100.0 %
Test CRC CFB82ADF
Copy CRC CFB82ADF
Copy OK

Track 13

Filename G:\ini003\13 – Age Of Reason.wav

Peak level 96.1 %
Track quality 100.0 %
Test CRC 85EFFF4E
Copy CRC 85EFFF4E
Copy OK

Track 14

Filename G:\ini003\14 – God Is Dead.wav

Peak level 96.2 %
Track quality 100.0 %
Test CRC 48A7287D
Copy CRC 48A7287D
Copy OK

No errors occurred

End of status report

REM GENRE “Hard Rock”
REM DATE 2015
REM DISCID BC129B0E
REM COMMENT “ExactAudioCopy v0.99pb5”
PERFORMER “Black Sabbath & Ozzy Osbourne”
TITLE “The Very Best Of”
FILE “Range.wav” WAVE
TRACK 01 AUDIO
TITLE “N.I.B”
PERFORMER “Black Sabbath & Ozzy Osbourne”
INDEX 01 00:00:00
TRACK 02 AUDIO
TITLE “Black Sabbath”
PERFORMER “Black Sabbath & Ozzy Osbourne”
INDEX 01 05:38:18
TRACK 03 AUDIO
TITLE “War Pigs”
PERFORMER “Black Sabbath & Ozzy Osbourne”
INDEX 01 11:55:18
TRACK 04 AUDIO
TITLE “Paranoid”
PERFORMER “Black Sabbath & Ozzy Osbourne”
INDEX 01 19:51:18
TRACK 05 AUDIO
TITLE “Sweet Leaf”
PERFORMER “Black Sabbath & Ozzy Osbourne”
INDEX 01 22:33:33
TRACK 06 AUDIO
TITLE “Changes”
PERFORMER “Black Sabbath & Ozzy Osbourne”
INDEX 01 27:30:48
TRACK 07 AUDIO
TITLE “Sabbath Bloody Sabbath”
PERFORMER “Black Sabbath & Ozzy Osbourne”
INDEX 01 32:13:64
TRACK 08 AUDIO
TITLE “Hole In The Sky”
PERFORMER “Black Sabbath & Ozzy Osbourne”
INDEX 01 37:56:46
TRACK 09 AUDIO
TITLE “Symptom Of The Universe”
PERFORMER “Black Sabbath & Ozzy Osbourne”
INDEX 01 41:50:46
TRACK 10 AUDIO
TITLE “You Won’t Change Me”
PERFORMER “Black Sabbath & Ozzy Osbourne”
INDEX 01 48:19:32
TRACK 11 AUDIO
TITLE “She Is Gone”
PERFORMER “Black Sabbath & Ozzy Osbourne”
INDEX 01 54:55:32
TRACK 12 AUDIO
TITLE “Peace Of Mind”
PERFORMER “Black Sabbath & Ozzy Osbourne”
INDEX 01 59:49:32
TRACK 13 AUDIO
TITLE “Age Of Reason”
PERFORMER “Black Sabbath & Ozzy Osbourne”
INDEX 01 63:29:32
TRACK 14 AUDIO
TITLE “God Is Dead”
PERFORMER “Black Sabbath & Ozzy Osbourne”
INDEX 01 70:30:32

Leave a Reply

Your email address will not be published. Required fields are marked *

This site uses Akismet to reduce spam. Learn how your comment data is processed.