Black Sabbath – Never Say Die! (Limited Remastered Edition)




Artist: Black Sabbath
Year: 1978/2010
Genre: Rock
Notes: Discogs
Add. Notes: Limited Remastered Edition
Cover incl.: Yes
Encoder: FLAC
Bitrate: ~1000 kBit/s (44.1 kHz/16 Bit/s)
Log & Cue incl.: Yes
Size: 361,24 MB
Password: “slam” (without ” “)


All Downloads/Hosters are compatible

Download 1
Turbobit.net
KatFile.com
Rapidgator.net
Download 2
Turbobit.net
KatFile.com
Rapidgator.net

Tracklist:

1 - Never Say Die - 3:49
2 - Johnny Blade - 6:29
3 - Junior's Eyes - 6:43
4 - A Hard Road - 6:06
5 - Shock Wave - 5:16
6 - Air Dance - 5:18
7 - Over To You - 5:25
8 - Breakout - 2:35
9 - Swinging The Chain - 4:06

EAC-Log, CUE-Sheed & NFO:

Click to open spoiler
Exact Audio Copy V0.99 prebeta 5 from 4. May 2009

Отчёт EAC об извлечении, выполненном 23. декабря 2010, 23:27

Black Sabbath / Never Say Die!

Дисковод: HL-DT-STDVDRAM GSA-H60N Adapter: 2 ID: 0

Режим чтения : Достоверность
Использование точного потока : Да
Отключение кэша аудио : Да
Использование указателей C2 : Нет

Коррекция смещения при чтении : 667
Способность читать области Lead-in и Lead-out : Нет
Заполнение пропущенных сэмплов тишиной : Да
Удаление блоков с тишиной в начале и конце : Нет
При вычислениях CRC использовались нулевые сэмплы : Да
Интерфейс : Встроенный Win32-интерфейс для Win NT/2000

Выходной формат : Внутренние WAV-операции
Формат сэмплов : 44.100 Гц; 16 бит; стерео

TOC извлечённого CD

Трек | Старт | Длительность | Начальный сектор | Конечный сектор
———————————————————————
1 | 0:00.00 | 3:50.55 | 0 | 17304
2 | 3:50.55 | 6:27.64 | 17305 | 46393
3 | 10:18.44 | 6:42.31 | 46394 | 76574
4 | 17:01.00 | 6:05.04 | 76575 | 103953
5 | 23:06.04 | 5:15.15 | 103954 | 127593
6 | 28:21.19 | 5:16.61 | 127594 | 151354
7 | 33:38.05 | 5:22.39 | 151355 | 175543
8 | 39:00.44 | 2:35.07 | 175544 | 187175
9 | 41:35.51 | 4:07.47 | 187176 | 205747

Характеристики диапазона извлечения и сообщения об ошибках

Выбранный диапазон

Имя файла C:\Documents and Settings\Администратор\Рабочий стол\Lossless Galaxy Rip by ALLexxess\2010 The Complete Ozzy Years (13CD Box Set Sanctuary Records)\1978 Never Say Die!\Black Sabbath – Never Say Die!.wav

Пиковый уровень 96.8 %
Качество диапазона 100.0 %
CRC теста 361D0071
CRC копии 361D0071
Копирование… OK

Ошибок не произошло

AccurateRip: сводка

Трек 1 точность не определена (достоверность 23) [11C1B229], AccurateRip вернул [BD928079]
Трек 2 точность не определена (достоверность 23) [7589300D], AccurateRip вернул [0A0CC7F9]
Трек 3 точность не определена (достоверность 23) [D95973FD], AccurateRip вернул [9697A180]
Трек 4 точность не определена (достоверность 23) [2C1B3205], AccurateRip вернул [1E3ECEE4]
Трек 5 точность не определена (достоверность 21) [6356BB5B], AccurateRip вернул [AAA27E3B]
Трек 6 точность не определена (достоверность 23) [3DC7632C], AccurateRip вернул [84DC95EE]
Трек 7 точность не определена (достоверность 23) [6EF4E3E9], AccurateRip вернул [04A54A82]
Трек 8 точность не определена (достоверность 23) [0B28ADCD], AccurateRip вернул [D7EB3B27]
Трек 9 точность не определена (достоверность 23) [1E0F435A], AccurateRip вернул [7DB5B033]

Ни один трек не прошёл проверки на точность
В вашей базе может быть иной вариант штамповки диска

Конец отчёта

REM GENRE “Hard Rock / Heavy Metal”
REM DATE 1978
REM DISCID 5B0AB709
REM COMMENT “ExactAudioCopy v0.99pb5”
PERFORMER “Black Sabbath”
TITLE “Never Say Die!”
FILE “Black Sabbath – Never Say Die!.wav” WAVE
TRACK 01 AUDIO
TITLE “Never Say Die”
PERFORMER “Black Sabbath”
INDEX 01 00:00:00
TRACK 02 AUDIO
TITLE “Johnny Blade”
PERFORMER “Black Sabbath”
INDEX 00 03:48:59
INDEX 01 03:50:55
TRACK 03 AUDIO
TITLE “Junior’s Eyes”
PERFORMER “Black Sabbath”
INDEX 01 10:18:44
TRACK 04 AUDIO
TITLE “A Hard Road”
PERFORMER “Black Sabbath”
INDEX 00 17:00:21
INDEX 01 17:01:00
TRACK 05 AUDIO
TITLE “Shock Wave”
PERFORMER “Black Sabbath”
INDEX 00 23:05:04
INDEX 01 23:06:04
TRACK 06 AUDIO
TITLE “Air Dance”
PERFORMER “Black Sabbath”
INDEX 00 28:19:73
INDEX 01 28:21:19
TRACK 07 AUDIO
TITLE “Over To You”
PERFORMER “Black Sabbath”
INDEX 00 33:36:68
INDEX 01 33:38:05
TRACK 08 AUDIO
TITLE “Breakout”
PERFORMER “Black Sabbath”
INDEX 00 38:59:38
INDEX 01 39:00:44
TRACK 09 AUDIO
TITLE “Swinging The Chain”
PERFORMER “Black Sabbath”
INDEX 01 41:35:51


Leave a Reply

Your email address will not be published. Required fields are marked *

This site uses Akismet to reduce spam. Learn how your comment data is processed.