Black Sabbath – Master Of Reality (Limited Remastered Edition)




Artist: Black Sabbath
Year: 1971/2010
Genre: Metal
Notes: Discogs
Add. Notes: Limited Remastered Edition
Cover incl.: Yes
Encoder: FLAC
Bitrate: ~800 kBit/s (44.1 kHz/16 Bit/s)
Log & Cue incl.: Yes
Size: 245,71 MB
Password: “slam” (without ” “)


All Downloads/Hosters are compatible

Download 1
Turbobit.net
Rapidgator.net
KatFile.com
UploadRar.com
Download 2
Turbobit.net
Rapidgator.net
KatFile.com
UploadRar.com

Tracklist:

1 - Sweet Leaf - 5:05
2 - After Forever - 5:24
3 - Embryo - 0:28
4 - Children Of The Grave - 5:15
5 - Orchid - 1:31
6 - Lord Of This World - 5:24
7 - Solitude - 5:01
8 - Into The Void - 6:11

EAC-Log, CUE-Sheed & NFO:

Click to open spoiler
Exact Audio Copy V0.99 prebeta 5 from 4. May 2009

Отчёт EAC об извлечении, выполненном 21. декабря 2010, 23:32

Black Sabbath / Master Of Reality

Дисковод: HL-DT-STDVDRAM GSA-H60N Adapter: 2 ID: 0

Режим чтения : Достоверность
Использование точного потока : Да
Отключение кэша аудио : Да
Использование указателей C2 : Нет

Коррекция смещения при чтении : 667
Способность читать области Lead-in и Lead-out : Нет
Заполнение пропущенных сэмплов тишиной : Да
Удаление блоков с тишиной в начале и конце : Нет
При вычислениях CRC использовались нулевые сэмплы : Да
Интерфейс : Встроенный Win32-интерфейс для Win NT/2000

Выходной формат : Внутренние WAV-операции
Формат сэмплов : 44.100 Гц; 16 бит; стерео

TOC извлечённого CD

Трек | Старт | Длительность | Начальный сектор | Конечный сектор
———————————————————————
1 | 0:00.00 | 5:05.46 | 0 | 22920
2 | 5:05.46 | 5:26.51 | 22921 | 47421
3 | 10:32.22 | 0:28.18 | 47422 | 49539
4 | 11:00.40 | 5:16.33 | 49540 | 73272
5 | 16:16.73 | 1:31.03 | 73273 | 80100
6 | 17:48.01 | 5:26.08 | 80101 | 104558
7 | 23:14.09 | 5:01.74 | 104559 | 127207
8 | 28:16.08 | 6:11.09 | 127208 | 155041

Характеристики диапазона извлечения и сообщения об ошибках

Выбранный диапазон

Имя файла C:\Documents and Settings\Администратор\Рабочий стол\Lossless Galaxy Rip by ALLexxess\2010 The Complete Ozzy Years (13CD Box Set Sanctuary Records)\1971 Master Of Reality\Black Sabbath – Master Of Reality.wav

Пиковый уровень 97.7 %
Качество диапазона 100.0 %
CRC теста B32BE13E
CRC копии B32BE13E
Копирование… OK

Ошибок не произошло

AccurateRip: сводка

Трек 1 точность не определена (достоверность 40) [B790358F], AccurateRip вернул [075F0EF7]
Трек 2 точность не определена (достоверность 39) [F8F896EC], AccurateRip вернул [EC726F78]
Трек 3 точность не определена (достоверность 38) [EEFF2657], AccurateRip вернул [03B06BA6]
Трек 4 точность не определена (достоверность 39) [A3340C9D], AccurateRip вернул [7B8F5E41]
Трек 5 точность не определена (достоверность 38) [3EEEA976], AccurateRip вернул [79333AB3]
Трек 6 точность не определена (достоверность 39) [CC71ACF0], AccurateRip вернул [B861A30E]
Трек 7 точность не определена (достоверность 39) [145E41C4], AccurateRip вернул [15A9B467]
Трек 8 точность не определена (достоверность 39) [3610B363], AccurateRip вернул [D6B6F108]

Ни один трек не прошёл проверки на точность
В вашей базе может быть иной вариант штамповки диска

Конец отчёта

REM GENRE “Hard Rock / Heavy Metal”
REM DATE 1971
REM DISCID 72081308
REM COMMENT “ExactAudioCopy v0.99pb5”
PERFORMER “Black Sabbath”
TITLE “Master Of Reality”
FILE “Black Sabbath – Master Of Reality.wav” WAVE
TRACK 01 AUDIO
TITLE “Sweet Leaf”
PERFORMER “Black Sabbath”
INDEX 01 00:00:00
TRACK 02 AUDIO
TITLE “After Forever”
PERFORMER “Black Sabbath”
INDEX 00 05:03:35
INDEX 01 05:05:46
TRACK 03 AUDIO
TITLE “Embryo”
PERFORMER “Black Sabbath”
INDEX 00 10:29:72
INDEX 01 10:32:22
TRACK 04 AUDIO
TITLE “Children Of The Grave”
PERFORMER “Black Sabbath”
INDEX 01 11:00:40
TRACK 05 AUDIO
TITLE “Orchid”
PERFORMER “Black Sabbath”
INDEX 00 16:15:69
INDEX 01 16:16:73
TRACK 06 AUDIO
TITLE “Lord Of This World”
PERFORMER “Black Sabbath”
INDEX 01 17:48:01
TRACK 07 AUDIO
TITLE “Solitude”
PERFORMER “Black Sabbath”
INDEX 00 23:12:05
INDEX 01 23:14:09
TRACK 08 AUDIO
TITLE “Into The Void”
PERFORMER “Black Sabbath”
INDEX 01 28:16:08


Leave a Reply

Your email address will not be published. Required fields are marked *

Enter the text from the image below
 

This site uses Akismet to reduce spam. Learn how your comment data is processed.