Black Sabbath – Headless Cross (Japanese Edition)




Artist: Black Sabbath
Year: 1989
Genre: Metal
Notes: Discogs
Add. Notes: Japanese Edition
Cover incl.: Yes
Encoder: FLAC
Bitrate: ~1000 kBit/s (44.1 kHz/16 Bit/s)
Log & Cue incl.: Yes
Size: 326,36 MB
Password: “slam” (without ” “)


All Downloads/Hosters are compatible

Download 1
Turbobit.net
Rapidgator.net
UploadEver.com
KatFile.com
UsersDrive.com
Download 2
Turbobit.net
Rapidgator.net
UploadEver.com
KatFile.com
UsersDrive.com
Download 3
Turbobit.net
Rapidgator.net
UploadEver.com
KatFile.com
UsersDrive.com

Tracklist:

1 - The Gates Of Hell - 1:06
2 - Headless Cross - 6:29
3 - Devil & Daughter - 4:44
4 - When Death Calls - 6:55
5 - Kill In The Spirit World - 5:11
6 - Call Of The Wild - 5:18
7 - Black Moon - 4:06
8 - Nightwing - 6:35

EAC-Log, CUE-Sheed & NFO:

Click to open spoiler
Exact Audio Copy V0.99 prebeta 5 from 4. May 2009

EAC extraction logfile from 27. May 2010, 18:03

Black Sabbath / Headless Cross (Japan, VDP-1449)

Used drive : TSSTcorpCD/DVDW SH-S182D Adapter: 1 ID: 0

Read mode : Secure
Utilize accurate stream : Yes
Defeat audio cache : Yes
Make use of C2 pointers : No

Read offset correction : 6
Overread into Lead-In and Lead-Out : No
Fill up missing offset samples with silence : Yes
Delete leading and trailing silent blocks : No
Null samples used in CRC calculations : Yes
Used interface : Installed external ASPI interface

Used output format : User Defined Encoder
Selected bitrate : 1024 kBit/s
Quality : High
Add ID3 tag : Yes
Command line compressor : C:\Program Files\Exact Audio Copy\Flac\flac.exe
Additional command line options : -0 -V -T “ARTIST=%a” -T “ALBUM=%g” -T “DATE=%y” -T “GENRE=%m” -T “COMMENT=released by KoGGaN” -T “URL=http://flacmusic.ru/user/DaRReL/news/” %s

TOC of the extracted CD

Track | Start | Length | Start sector | End sector
———————————————————
1 | 0:00.37 | 1:06.05 | 37 | 4991
2 | 1:06.42 | 6:30.08 | 4992 | 34249
3 | 7:36.50 | 4:44.20 | 34250 | 55569
4 | 12:20.70 | 6:56.05 | 55570 | 86774
5 | 19:17.00 | 5:10.67 | 86775 | 110091
6 | 24:27.67 | 5:19.25 | 110092 | 134041
7 | 29:47.17 | 4:06.15 | 134042 | 152506
8 | 33:53.32 | 6:37.13 | 152507 | 182294

Range status and errors

Selected range

Filename F:\† Ronnie James Dio †\1989- ‘Black Sabbath’- Headless Cross (Japan, VDP-1449)\Black Sabbath – Headless Cross (Japan, VDP-1449).wav

Peak level 100.0 %
Range quality 100.0 %
Copy CRC F1A99773
Copy OK

No errors occurred

End of status report

REM GENRE “Hard Rock”
REM DATE 1989
REM DISCID 75097E08
REM COMMENT “ExactAudioCopy v0.99pb5”
PERFORMER “Black Sabbath”
TITLE “Headless Cross (Japan, VDP-1449)”
FILE “Black Sabbath – Headless Cross (Japan, VDP-1449).flac” WAVE
TRACK 01 AUDIO
TITLE “The Gates Of Hell”
PERFORMER “Black Sabbath”
INDEX 00 00:00:00
INDEX 01 00:00:37
TRACK 02 AUDIO
TITLE “Headless Cross”
PERFORMER “Black Sabbath”
INDEX 01 01:06:42
TRACK 03 AUDIO
TITLE “Devil & Daughter”
PERFORMER “Black Sabbath”
INDEX 01 07:36:50
TRACK 04 AUDIO
TITLE “When Death Calls”
PERFORMER “Black Sabbath”
INDEX 00 12:19:16
INDEX 01 12:20:70
TRACK 05 AUDIO
TITLE “Kill In The Spirit World”
PERFORMER “Black Sabbath”
INDEX 01 19:17:00
TRACK 06 AUDIO
TITLE “Call Of The Wild”
PERFORMER “Black Sabbath”
INDEX 00 24:27:66
INDEX 01 24:27:67
TRACK 07 AUDIO
TITLE “Black Moon”
PERFORMER “Black Sabbath”
INDEX 01 29:47:17
TRACK 08 AUDIO
TITLE “Nightwing”
PERFORMER “Black Sabbath”
INDEX 00 33:51:29
INDEX 01 33:53:32

Leave a Reply

Your email address will not be published. Required fields are marked *

This site uses Akismet to reduce spam. Learn how your comment data is processed.