Black Sabbath – Black Sabbath Vol. 4 (Remastered)




[Total: 0    Average: 0/5]

Artist: Black Sabbath
Year: 1972/2009
Genre: Metal
Notes: Discogs
Add. Notes: Remastered
Cover incl.: Yes
Encoder: FLAC
Bitrate: ~900 kBit/s (44.1 kHz/16 Bit/s)
Log & Cue incl.: Yes
Size: 327,66 MB
Password: “slam” (without ” “)


All Downloads/Hosters are compatible

Download 1
Share-online.biz
KatFile.com
Rapidgator.net
Download 2
Share-online.biz
KatFile.com
Rapidgator.net

Tracklist:

1 - Wheels Of Confusion - 8:03
2 - Tomorrows Dream - 3:12
3 - Changes - 4:45
4 - FX - 1:43
5 - Supernaut - 4:43
6 - Snowblind - 5:31
7 - Cornucopia - 3:54
8 - Laguna Sunrise - 2:53
9 - St. Vitus Dance - 2:29
10 - Under The Sun - 5:53

EAC-Log, CUE-Sheed & NFO:

Click to open spoiler
Exact Audio Copy V0.99 prebeta 5 from 4. May 2009

Отчёт EAC об извлечении, выполненном 22. декабря 2010, 22:01

Black Sabbath / Vol 4

Дисковод: HL-DT-STDVDRAM GSA-H60N Adapter: 2 ID: 0

Режим чтения : Достоверность
Использование точного потока : Да
Отключение кэша аудио : Да
Использование указателей C2 : Нет

Коррекция смещения при чтении : 667
Способность читать области Lead-in и Lead-out : Нет
Заполнение пропущенных сэмплов тишиной : Да
Удаление блоков с тишиной в начале и конце : Нет
При вычислениях CRC использовались нулевые сэмплы : Да
Интерфейс : Встроенный Win32-интерфейс для Win NT/2000

Выходной формат : Внутренние WAV-операции
Формат сэмплов : 44.100 Гц; 16 бит; стерео

TOC извлечённого CD

Трек | Старт | Длительность | Начальный сектор | Конечный сектор
———————————————————————
1 | 0:00.00 | 8:02.48 | 0 | 36197
2 | 8:02.48 | 3:12.09 | 36198 | 50606
3 | 11:14.57 | 4:44.56 | 50607 | 71962
4 | 15:59.38 | 1:42.46 | 71963 | 79658
5 | 17:42.09 | 4:43.09 | 79659 | 100892
6 | 22:25.18 | 5:31.12 | 100893 | 125729
7 | 27:56.30 | 3:54.35 | 125730 | 143314
8 | 31:50.65 | 2:52.53 | 143315 | 156267
9 | 34:43.43 | 2:29.26 | 156268 | 167468
10 | 37:12.69 | 5:53.18 | 167469 | 193961

Характеристики диапазона извлечения и сообщения об ошибках

Выбранный диапазон

Имя файла C:\Documents and Settings\Администратор\Рабочий стол\Lossless Galaxy Rip by ALLexxess\2010 The Complete Ozzy Years (13CD Box Set Sanctuary Records)\1972 Volume 4\Black Sabbath – Vol 4.wav

Пиковый уровень 98.7 %
Качество диапазона 99.9 %
CRC теста E2E1401C
CRC копии E2E1401C
Копирование… OK

Ошибок не произошло

AccurateRip: сводка

Трек 1 точность не определена (достоверность 25) [5061ACF1], AccurateRip вернул [C491D492]
Трек 2 точность не определена (достоверность 26) [DAD5BAB8], AccurateRip вернул [772F865C]
Трек 3 точность не определена (достоверность 26) [A8D4D881], AccurateRip вернул [F8BEB0E7]
Трек 4 точность не определена (достоверность 25) [2BAA0682], AccurateRip вернул [ABEFE562]
Трек 5 точность не определена (достоверность 26) [B7868930], AccurateRip вернул [AC9F1E4E]
Трек 6 точность не определена (достоверность 26) [20C000FD], AccurateRip вернул [5B3CD24A]
Трек 7 точность не определена (достоверность 26) [B2496A87], AccurateRip вернул [E63022D7]
Трек 8 точность не определена (достоверность 25) [127C3080], AccurateRip вернул [5BE6A548]
Трек 9 точность не определена (достоверность 26) [0142A3BB], AccurateRip вернул [44CD3F41]
Трек 10 точность не определена (достоверность 26) [41E9271C], AccurateRip вернул [6A563E4E]

Ни один трек не прошёл проверки на точность
В вашей базе может быть иной вариант штамповки диска

Конец отчёта

REM GENRE “Hard Rock / Heavy Metal”
REM DATE 1976
REM DISCID 8C0A1A0A
REM COMMENT “ExactAudioCopy v0.99pb5”
PERFORMER “Black Sabbath”
TITLE “Vol 4”
FILE “Black Sabbath – Vol 4.wav” WAVE
TRACK 01 AUDIO
TITLE “Wheels Of Confusion”
PERFORMER “Black Sabbath”
INDEX 01 00:00:00
TRACK 02 AUDIO
TITLE “Tomorrows Dream”
PERFORMER “Black Sabbath”
INDEX 00 07:59:48
INDEX 01 08:02:48
TRACK 03 AUDIO
TITLE “Changes”
PERFORMER “Black Sabbath”
INDEX 00 11:11:35
INDEX 01 11:14:57
TRACK 04 AUDIO
TITLE “FX”
PERFORMER “Black Sabbath”
INDEX 00 15:55:69
INDEX 01 15:59:38
TRACK 05 AUDIO
TITLE “Supernaut”
PERFORMER “Black Sabbath”
INDEX 01 17:42:09
TRACK 06 AUDIO
TITLE “Snowblind”
PERFORMER “Black Sabbath”
INDEX 00 22:24:55
INDEX 01 22:25:18
TRACK 07 AUDIO
TITLE “Cornucopia”
PERFORMER “Black Sabbath”
INDEX 00 27:52:69
INDEX 01 27:56:30
TRACK 08 AUDIO
TITLE “Laguna Sunrise”
PERFORMER “Black Sabbath”
INDEX 00 31:47:53
INDEX 01 31:50:65
TRACK 09 AUDIO
TITLE “St. Vitus Dance”
PERFORMER “Black Sabbath”
INDEX 00 34:40:26
INDEX 01 34:43:43
TRACK 10 AUDIO
TITLE “Under The Sun”
PERFORMER “Black Sabbath”
INDEX 00 37:09:43
INDEX 01 37:12:69


Spread the Download

Leave a Reply

Your email address will not be published. Required fields are marked *

Enter the text from the image below
 

This site uses Akismet to reduce spam. Learn how your comment data is processed.