Black Sabbath – Black Sabbath (Limited Remastered Edition)




Artist: Black Sabbath
Year: 1970/2010
Genre: Metal
Notes: Discogs
Add. Notes: Limited Remastered Edition
Cover incl.: Yes
Encoder: FLAC
Bitrate: ~900 kBit/s (44.1 kHz/16 Bit/s)
Log & Cue incl.: Yes
Size: 282,4 MB
Password: “slam” (without ” “)


All Downloads/Hosters are compatible

Download 1
Turbobit.net
Rapidgator.net
KatFile.com
UploadRar.com
Download 2
Turbobit.net
Rapidgator.net
KatFile.com
UploadRar.com
Download 3
Turbobit.net
Rapidgator.net
KatFile.com
UploadRar.com

Tracklist:

1 - Black Sabbath - 6:22
2 - The Wizard - 4:25
3 - Behind The Wall Of Sleep - 3:37
4 - N.I.B. - 6:07
5 - Evil Woman (Don't Play Your Games With Me) - 3:27
6 - Sleeping Village - 3:46
7 - Warning - 10:33

EAC-Log, CUE-Sheed & NFO:

Click to open spoiler
Exact Audio Copy V0.99 prebeta 5 from 4. May 2009

Отчёт EAC об извлечении, выполненном 21. декабря 2010, 22:46

Black Sabbath / Black Sabbath

Дисковод: HL-DT-STDVDRAM GSA-H60N Adapter: 2 ID: 0

Режим чтения : Достоверность
Использование точного потока : Да
Отключение кэша аудио : Да
Использование указателей C2 : Нет

Коррекция смещения при чтении : 667
Способность читать области Lead-in и Lead-out : Нет
Заполнение пропущенных сэмплов тишиной : Да
Удаление блоков с тишиной в начале и конце : Нет
При вычислениях CRC использовались нулевые сэмплы : Да
Интерфейс : Встроенный Win32-интерфейс для Win NT/2000

Выходной формат : Внутренние WAV-операции
Формат сэмплов : 44.100 Гц; 16 бит; стерео

TOC извлечённого CD

Трек | Старт | Длительность | Начальный сектор | Конечный сектор
———————————————————————
1 | 0:00.00 | 6:20.21 | 0 | 28520
2 | 6:20.21 | 4:23.39 | 28521 | 48284
3 | 10:43.60 | 3:37.05 | 48285 | 64564
4 | 14:20.65 | 6:07.38 | 64565 | 92127
5 | 20:28.28 | 3:24.74 | 92128 | 107501
6 | 23:53.27 | 3:46.04 | 107502 | 124455
7 | 27:39.31 | 10:28.22 | 124456 | 171577

Характеристики диапазона извлечения и сообщения об ошибках

Выбранный диапазон

Имя файла C:\Documents and Settings\Администратор\Рабочий стол\Lossless Galaxy Rip by ALLexxess\2010 The Complete Ozzy Years (13CD Box Set Sanctuary Records)\1970 Black Sabbath\Black Sabbath – Black Sabbath.wav

Пиковый уровень 97.7 %
Качество диапазона 100.0 %
CRC теста 4E8B426F
CRC копии 4E8B426F
Копирование… OK

Ошибок не произошло

AccurateRip: сводка

Трек 1 точность не определена (достоверность 39) [84E211F3], AccurateRip вернул [8123EE09]
Трек 2 точность не определена (достоверность 39) [152CCF70], AccurateRip вернул [432AB6CC]
Трек 3 точность не определена (достоверность 39) [24FACFF0], AccurateRip вернул [5EE0D9BC]
Трек 4 точность не определена (достоверность 39) [EA80EF68], AccurateRip вернул [0AF018FC]
Трек 5 точность не определена (достоверность 39) [548412D2], AccurateRip вернул [BBC8DE85]
Трек 6 точность не определена (достоверность 38) [33A1DA2A], AccurateRip вернул [7D70A346]
Трек 7 точность не определена (достоверность 38) [FE6C5466], AccurateRip вернул [BFDBEEE9]

Ни один трек не прошёл проверки на точность
В вашей базе может быть иной вариант штамповки диска

Конец отчёта

REM GENRE “Hard Rock / Heavy Metal”
REM DATE 1970
REM DISCID 4F08EF07
REM COMMENT “ExactAudioCopy v0.99pb5”
PERFORMER “Black Sabbath”
TITLE “Black Sabbath”
FILE “Black Sabbath – Black Sabbath.wav” WAVE
TRACK 01 AUDIO
TITLE “Black Sabbath”
PERFORMER “Black Sabbath”
INDEX 01 00:00:00
TRACK 02 AUDIO
TITLE “The Wizard”
PERFORMER “Black Sabbath”
INDEX 00 06:17:12
INDEX 01 06:20:21
TRACK 03 AUDIO
TITLE “Behind The Wall Of Sleep”
PERFORMER “Black Sabbath”
INDEX 00 10:41:38
INDEX 01 10:43:60
TRACK 04 AUDIO
TITLE “N.I.B.”
PERFORMER “Black Sabbath”
INDEX 01 14:20:65
TRACK 05 AUDIO
TITLE “Evil Woman (Don’t Play Your Games With Me)”
PERFORMER “Black Sabbath”
INDEX 00 20:25:29
INDEX 01 20:28:28
TRACK 06 AUDIO
TITLE “Sleeping Village”
PERFORMER “Black Sabbath”
INDEX 00 23:51:24
INDEX 01 23:53:27
TRACK 07 AUDIO
TITLE “Warning”
PERFORMER “Black Sabbath”
INDEX 01 27:39:31


Leave a Reply

Your email address will not be published. Required fields are marked *

Enter the text from the image below
 

This site uses Akismet to reduce spam. Learn how your comment data is processed.