Black Sabbath – Best Ballads




No Cover available

Artist: Black Sabbath
Year: 1996
Genre: Rock
Notes: Discogs
Add. Notes:
Watch Songs on: YouTube
Cover incl.: Yes
Encoder: FLAC
Bitrate: ~800 kBit/s (44.1 kHz/16 Bit/s)
Log & Cue incl.: Yes/Yes
Size: 403,6 MB
Password: “slam” (without ” “)


All Downloads/Hosters are compatible

Download 1
KatFile.com
Turbobit.net
Rapidgator.net
FileFactory.com
Download 2
KatFile.com
Turbobit.net
Rapidgator.net
FileFactory.com

Tracklist:

1 - I Won't Cry For You  
2 - Solitude  
3 - Children Of The Sea  
4 - Born Again  
5 - Planet Caravan  
6 - You Won't Change Me  
7 - No Stranger To Love  
8 - Too Late  
9 - Changes  
10 - Dying For Love  
11 - The Sign Of The Southern Cross  
12 - She's Gone  
13 - Fluff

EAC-Log, CUE-Sheed & NFO:

Click to open spoiler
REM GENRE Rock
REM DATE 1995
REM DISCID D610E10D
REM COMMENT “ExactAudioCopy v0.99pb5”
PERFORMER “Black Sabbath”
TITLE “Best Ballads”
FILE “01. Black Sabbath – I won’t cry for you.wav” WAVE
TRACK 01 AUDIO
TITLE “I won’t cry for you”
PERFORMER “Black Sabbath”
INDEX 01 00:00:00
TRACK 02 AUDIO
TITLE “Solitude”
PERFORMER “Black Sabbath”
INDEX 00 04:48:50
FILE “02. Black Sabbath – Solitude.wav” WAVE
INDEX 01 00:00:00
TRACK 03 AUDIO
TITLE “Children of the sea”
PERFORMER “Black Sabbath”
INDEX 00 05:02:38
FILE “03. Black Sabbath – Children of the sea.wav” WAVE
INDEX 01 00:00:00
TRACK 04 AUDIO
TITLE “Born again”
PERFORMER “Black Sabbath”
INDEX 00 05:33:37
FILE “04. Black Sabbath – Born again.wav” WAVE
INDEX 01 00:00:00
TRACK 05 AUDIO
TITLE “Planet caravan”
PERFORMER “Black Sabbath”
INDEX 00 06:31:18
FILE “05. Black Sabbath – Planet caravan.wav” WAVE
INDEX 01 00:00:00
TRACK 06 AUDIO
TITLE “You won’t change me”
PERFORMER “Black Sabbath”
INDEX 00 04:19:45
FILE “06. Black Sabbath – You won’t change me.wav” WAVE
INDEX 01 00:00:00
TRACK 07 AUDIO
TITLE “No stranger to love”
PERFORMER “Black Sabbath”
INDEX 00 06:34:28
FILE “07. Black Sabbath – No stranger to love.wav” WAVE
INDEX 01 00:00:00
TRACK 08 AUDIO
TITLE “Too late”
PERFORMER “Black Sabbath”
INDEX 00 04:29:23
FILE “08. Black Sabbath – Too late.wav” WAVE
INDEX 01 00:00:00
TRACK 09 AUDIO
TITLE “Changes”
PERFORMER “Black Sabbath”
INDEX 00 06:55:50
FILE “09. Black Sabbath – Changes.wav” WAVE
INDEX 01 00:00:00
TRACK 10 AUDIO
TITLE “Dying for love”
PERFORMER “Black Sabbath”
INDEX 00 04:42:25
FILE “10. Black Sabbath – Dying for love.wav” WAVE
INDEX 01 00:00:00
TRACK 11 AUDIO
TITLE “The sign of the southern cross”
PERFORMER “Black Sabbath”
INDEX 00 05:49:30
FILE “11. Black Sabbath – The sign of the southern cross.wav” WAVE
INDEX 01 00:00:00
TRACK 12 AUDIO
TITLE “She’s gone”
PERFORMER “Black Sabbath”
INDEX 00 07:49:30
FILE “12. Black Sabbath – She’s gone.wav” WAVE
INDEX 01 00:00:00
TRACK 13 AUDIO
TITLE “Fluff”
PERFORMER “Black Sabbath”
INDEX 00 04:52:68
FILE “13. Black Sabbath – Fluff.wav” WAVE
INDEX 01 00:00:00

—————

————————————————————

Exact Audio Copy V0.99 prebeta 5 from 4. May 2009

EAC extraction logfile from 24. November 2010, 18:53

Black Sabbath / Best Ballads

Used drive : _NEC DVD_RW ND-3540A Adapter: 1 ID: 0

Read mode : Secure
Utilize accurate stream : Yes
Defeat audio cache : Yes
Make use of C2 pointers : No

Read offset correction : 48
Overread into Lead-In and Lead-Out : No
Fill up missing offset samples with silence : Yes
Delete leading and trailing silent blocks : No
Null samples used in CRC calculations : Yes
Used interface : Installed external ASPI interface
Gap handling : Appended to previous track

Used output format : User Defined Encoder
Selected bitrate : 1024 kBit/s
Quality : High
Add ID3 tag : No
Command line compressor : C:\Program Files\Exact Audio Copy\FLAC\FLAC.EXE
Additional command line options : -8 -V -T “ARTIST=%a” -T “TITLE=%t” -T “ALBUM=%g” -T “DATE=%y” -T “TRACKNUMBER=%n” -T “GENRE=%m” -T “COMMENT=EAC FLAC -8” %s

TOC of the extracted CD

Track | Start | Length | Start sector | End sector
———————————————————
1 | 0:00.00 | 4:50.37 | 0 | 21786
2 | 4:50.37 | 5:04.63 | 21787 | 44649
3 | 9:55.25 | 5:35.57 | 44650 | 69831
4 | 15:31.07 | 6:32.73 | 69832 | 99304
5 | 22:04.05 | 4:21.57 | 99305 | 118936
6 | 26:25.62 | 6:36.40 | 118937 | 148676
7 | 33:02.27 | 4:31.35 | 148677 | 169036
8 | 37:33.62 | 6:57.13 | 169037 | 200324
9 | 44:31.00 | 4:43.62 | 200325 | 221611
10 | 49:14.62 | 5:51.33 | 221612 | 247969
11 | 55:06.20 | 7:50.62 | 247970 | 283281
12 | 62:57.07 | 4:54.45 | 283282 | 305376
13 | 67:51.52 | 4:09.48 | 305377 | 324099

Track 1

Filename D:\archives\RemStudio\копии СD\01. Black Sabbath – I won’t cry for you.wav

Pre-gap length 0:00:02.00

Peak level 99.2 %
Track quality 100.0 %
Test CRC 94619155
Copy CRC 94619155
Accurately ripped (confidence 4) [558519BA]
Copy OK

Track 2

Filename D:\archives\RemStudio\копии СD\02. Black Sabbath – Solitude.wav

Pre-gap length 0:00:01.82

Peak level 43.6 %
Track quality 99.9 %
Test CRC 033129B7
Copy CRC 033129B7
Accurately ripped (confidence 4) [1C4A7436]
Copy OK

Track 3

Filename D:\archives\RemStudio\копии СD\03. Black Sabbath – Children of the sea.wav

Pre-gap length 0:00:02.33

Peak level 88.1 %
Track quality 100.0 %
Test CRC D33349B2
Copy CRC D33349B2
Accurately ripped (confidence 4) [81D4C63A]
Copy OK

Track 4

Filename D:\archives\RemStudio\копии СD\04. Black Sabbath – Born again.wav

Pre-gap length 0:00:02.26

Peak level 97.7 %
Track quality 100.0 %
Test CRC F872DF9A
Copy CRC F872DF9A
Accurately ripped (confidence 4) [C1B7A87A]
Copy OK

Track 5

Filename D:\archives\RemStudio\копии СD\05. Black Sabbath – Planet caravan.wav

Pre-gap length 0:00:01.73

Peak level 73.2 %
Track quality 100.0 %
Test CRC AEC3D31A
Copy CRC AEC3D31A
Accurately ripped (confidence 4) [D71BB179]
Copy OK

Track 6

Filename D:\archives\RemStudio\копии СD\06. Black Sabbath – You won’t change me.wav

Pre-gap length 0:00:02.16

Peak level 90.3 %
Track quality 100.0 %
Test CRC 7D684150
Copy CRC 7D684150
Accurately ripped (confidence 4) [74760E5B]
Copy OK

Track 7

Filename D:\archives\RemStudio\копии СD\07. Black Sabbath – No stranger to love.wav

Pre-gap length 0:00:02.16

Peak level 95.9 %
Track quality 100.0 %
Test CRC 10B5DDD3
Copy CRC 10B5DDD3
Accurately ripped (confidence 4) [76DEECB1]
Copy OK

Track 8

Filename D:\archives\RemStudio\копии СD\08. Black Sabbath – Too late.wav

Pre-gap length 0:00:02.16

Peak level 100.0 %
Track quality 100.0 %
Test CRC F8626DAC
Copy CRC F8626DAC
Accurately ripped (confidence 4) [DB91375A]
Copy OK

Track 9

Filename D:\archives\RemStudio\копии СD\09. Black Sabbath – Changes.wav

Pre-gap length 0:00:01.50

Peak level 69.8 %
Track quality 100.0 %
Test CRC 55B52C87
Copy CRC 55B52C87
Accurately ripped (confidence 4) [3361F08B]
Copy OK

Track 10

Filename D:\archives\RemStudio\копии СD\10. Black Sabbath – Dying for love.wav

Pre-gap length 0:00:01.49

Peak level 71.0 %
Track quality 100.0 %
Test CRC 1C073A86
Copy CRC 1C073A86
Accurately ripped (confidence 4) [E04DD632]
Copy OK

Track 11

Filename D:\archives\RemStudio\копии СD\11. Black Sabbath – The sign of the southern cross.wav

Pre-gap length 0:00:02.04

Peak level 92.8 %
Track quality 100.0 %
Test CRC E92DF464
Copy CRC E92DF464
Accurately ripped (confidence 4) [22B34C6D]
Copy OK

Track 12

Filename D:\archives\RemStudio\копии СD\12. Black Sabbath – She’s gone.wav

Pre-gap length 0:00:01.42

Peak level 56.7 %
Track quality 100.0 %
Test CRC 354FDCC3
Copy CRC 354FDCC3
Accurately ripped (confidence 4) [4955A2C8]
Copy OK

Track 13

Filename D:\archives\RemStudio\копии СD\13. Black Sabbath – Fluff.wav

Pre-gap length 0:00:01.69

Peak level 61.3 %
Track quality 100.0 %
Test CRC F014868E
Copy CRC F014868E
Accurately ripped (confidence 4) [3BB5F957]
Copy OK

All tracks accurately ripped

No errors occurred

End of status report


Leave a Reply

Your email address will not be published. Required fields are marked *

This site uses Akismet to reduce spam. Learn how your comment data is processed.