Black Sabbath – 13 (Deluxe Edition)




Artist: Black Sabbath
Year: 2013
Genre: Metal
Notes: Discogs
Add. Notes: Deluxe Edition
Encoder: FLAC
Bitrate: ~1000 kBit/s (VBR)
Size: 525,94 MB
Password: “slam” (without ” “)


Tracklist:

1-1. End Of The Beginning 	8:04
1-2. God Is Dead? 		8:52
1-3. Loner 			5:01
1-4. Zeitgeist 		4:35
1-5. Age Of Reason 		7:00
1-6. Live Forever 		4:46
1-7. Damaged Soul 		7:50
1-8. Dear Father 		7:05
2-1. Methademic 		5:58
2-2. Peace Of Mind 		3:40
2-3. Pariah 			5:34
2-4. Naivete In Black

EAC-Log, CUE-Sheed & NFO:

Click to open spoiler
CD 1:
Exact Audio Copy V1.0 beta 3 from 29. August 2011

EAC extraction logfile from 14. June 2013, 9:50

Black Sabbath / 13

Used drive : HP DVD Writer 840d Adapter: 1 ID: 0

Read mode : Secure
Utilize accurate stream : Yes
Defeat audio cache : Yes
Make use of C2 pointers : No

Read offset correction : 6
Overread into Lead-In and Lead-Out : No
Fill up missing offset samples with silence : Yes
Delete leading and trailing silent blocks : No
Null samples used in CRC calculations : Yes
Used interface : Native Win32 interface for Win NT & 2000
Gap handling : Appended to previous track

Used output format : User Defined Encoder
Selected bitrate : 1024 kBit/s
Quality : High
Add ID3 tag : No
Command line compressor : C:\Program Files (x86)\Exact Audio Copy\Flac\flac.exe
Additional command line options : -8 -V -T “artist=%artist%” -T “title=%title%” -T “album=%albumtitle%” -T “date=%year%” -T “tracknumber=%tracknr%” -T “genre=%genre%” %source%

TOC of the extracted CD

Track | Start | Length | Start sector | End sector
———————————————————
1 | 0:00.00 | 8:06.17 | 0 | 36466
2 | 8:06.17 | 8:52.20 | 36467 | 76386
3 | 16:58.37 | 4:59.70 | 76387 | 98881
4 | 21:58.32 | 4:37.59 | 98882 | 119715
5 | 26:36.16 | 7:01.05 | 119716 | 151295
6 | 33:37.21 | 4:46.38 | 151296 | 172783
7 | 38:23.59 | 7:51.50 | 172784 | 208158
8 | 46:15.34 | 7:20.13 | 208159 | 241171

Track 1

Filename C:\EAC Rips\Black Sabbath – 13 (2013) [FLAC] {Best Buy Deluxe Edition}\Black Sabbath – 13\01 – End Of The Beginning.wav

Pre-gap length 0:00:02.00

Peak level 100.0 %
Extraction speed 2.3 X
Track quality 100.0 %
Test CRC 49852B1C
Copy CRC 49852B1C
Track not present in AccurateRip database
Copy OK

Track 2

Filename C:\EAC Rips\Black Sabbath – 13 (2013) [FLAC] {Best Buy Deluxe Edition}\Black Sabbath – 13\02 – God Is Dead.wav

Peak level 100.0 %
Extraction speed 2.3 X
Track quality 100.0 %
Test CRC 259D6453
Copy CRC 259D6453
Track not present in AccurateRip database
Copy OK

Track 3

Filename C:\EAC Rips\Black Sabbath – 13 (2013) [FLAC] {Best Buy Deluxe Edition}\Black Sabbath – 13\03 – Loner.wav

Peak level 100.0 %
Extraction speed 2.2 X
Track quality 100.0 %
Test CRC AF97A67A
Copy CRC AF97A67A
Track not present in AccurateRip database
Copy OK

Track 4

Filename C:\EAC Rips\Black Sabbath – 13 (2013) [FLAC] {Best Buy Deluxe Edition}\Black Sabbath – 13\04 – Zeitgeist.wav

Peak level 98.9 %
Extraction speed 2.2 X
Track quality 100.0 %
Test CRC BC762D7B
Copy CRC BC762D7B
Track not present in AccurateRip database
Copy OK

Track 5

Filename C:\EAC Rips\Black Sabbath – 13 (2013) [FLAC] {Best Buy Deluxe Edition}\Black Sabbath – 13\05 – Age Of Reason.wav

Peak level 100.0 %
Extraction speed 2.3 X
Track quality 100.0 %
Test CRC 989B3D46
Copy CRC 989B3D46
Track not present in AccurateRip database
Copy OK

Track 6

Filename C:\EAC Rips\Black Sabbath – 13 (2013) [FLAC] {Best Buy Deluxe Edition}\Black Sabbath – 13\06 – Live Forever.wav

Peak level 100.0 %
Extraction speed 1.6 X
Track quality 99.9 %
Test CRC AB23DCE2
Copy CRC AB23DCE2
Track not present in AccurateRip database
Copy OK

Track 7

Filename C:\EAC Rips\Black Sabbath – 13 (2013) [FLAC] {Best Buy Deluxe Edition}\Black Sabbath – 13\07 – Damaged Soul.wav

Peak level 100.0 %
Extraction speed 2.3 X
Track quality 100.0 %
Test CRC AB6B3954
Copy CRC AB6B3954
Track not present in AccurateRip database
Copy OK

Track 8

Filename C:\EAC Rips\Black Sabbath – 13 (2013) [FLAC] {Best Buy Deluxe Edition}\Black Sabbath – 13\08 – Dear Father.wav

Peak level 100.0 %
Extraction speed 2.3 X
Track quality 100.0 %
Test CRC 2D67B758
Copy CRC 2D67B758
Track not present in AccurateRip database
Copy OK

None of the tracks are present in the AccurateRip database

No errors occurred

End of status report

—- CUETools DB Plugin V2.1.3

[CTDB TOCID: KtuZgHnIWHY5T.7tEkO8Gn08UZI-] found, Submit result: KtuZgHnIWHY5T.7tEkO8Gn08UZI- has been confirmed
[e96060fd] (89/93) Accurately ripped
[eb76eadd] (01/93) No match
[118d9eae] (01/93) No match
[7f3699d5] (01/93) No match
[91a0bb81] (01/93) No match

==== Log checksum B697565AB460A692BA456CC692DC98F4BD8EA692E2B37615940695DA48A46579 ====
CD 2:
Exact Audio Copy V1.0 beta 3 from 29. August 2011

EAC extraction logfile from 14. June 2013, 10:16

Black Sabbath / 13 (Bonus Disc)

Used drive : HP DVD Writer 840d Adapter: 1 ID: 0

Read mode : Secure
Utilize accurate stream : Yes
Defeat audio cache : Yes
Make use of C2 pointers : No

Read offset correction : 6
Overread into Lead-In and Lead-Out : No
Fill up missing offset samples with silence : Yes
Delete leading and trailing silent blocks : No
Null samples used in CRC calculations : Yes
Used interface : Native Win32 interface for Win NT & 2000
Gap handling : Appended to previous track

Used output format : User Defined Encoder
Selected bitrate : 1024 kBit/s
Quality : High
Add ID3 tag : No
Command line compressor : C:\Program Files (x86)\Exact Audio Copy\Flac\flac.exe
Additional command line options : -8 -V -T “artist=%artist%” -T “title=%title%” -T “album=%albumtitle%” -T “date=%year%” -T “tracknumber=%tracknr%” -T “genre=%genre%” %source%

TOC of the extracted CD

Track | Start | Length | Start sector | End sector
———————————————————
1 | 0:00.00 | 5:58.15 | 0 | 26864
2 | 5:58.15 | 3:40.55 | 26865 | 43419
3 | 9:38.70 | 5:34.44 | 43420 | 68513
4 | 15:13.39 | 3:50.57 | 68514 | 85820

Track 1

Filename C:\EAC Rips\Black Sabbath – 13 (2013) [FLAC] {Best Buy Deluxe Edition}\Black Sabbath – 13 (Bonus Disc)\01 – Methademic.wav

Pre-gap length 0:00:02.00

Peak level 100.0 %
Extraction speed 1.8 X
Track quality 99.9 %
Test CRC 9DA0C155
Copy CRC 9DA0C155
Track not present in AccurateRip database
Copy OK

Track 2

Filename C:\EAC Rips\Black Sabbath – 13 (2013) [FLAC] {Best Buy Deluxe Edition}\Black Sabbath – 13 (Bonus Disc)\02 – Peace Of Mind.wav

Peak level 100.0 %
Extraction speed 1.5 X
Track quality 99.9 %
Test CRC 66AC8EC9
Copy CRC 66AC8EC9
Track not present in AccurateRip database
Copy OK

Track 3

Filename C:\EAC Rips\Black Sabbath – 13 (2013) [FLAC] {Best Buy Deluxe Edition}\Black Sabbath – 13 (Bonus Disc)\03 – Pariah.wav

Peak level 100.0 %
Extraction speed 2.2 X
Track quality 100.0 %
Test CRC 00AF721C
Copy CRC 00AF721C
Track not present in AccurateRip database
Copy OK

Track 4

Filename C:\EAC Rips\Black Sabbath – 13 (2013) [FLAC] {Best Buy Deluxe Edition}\Black Sabbath – 13 (Bonus Disc)\04 – Naivete In Black.wav

Peak level 98.8 %
Extraction speed 1.5 X
Track quality 99.9 %
Test CRC AEAE41FA
Copy CRC AEAE41FA
Track not present in AccurateRip database
Copy OK

None of the tracks are present in the AccurateRip database

No errors occurred

End of status report

—- CUETools DB Plugin V2.1.3

[CTDB TOCID: kLRWnr2irK.8M.iXt198Kj2kXT8-] found, Submit result: kLRWnr2irK.8M.iXt198Kj2kXT8- has been confirmed
[1020934b] (9/9) Accurately ripped

==== Log checksum 9273F566E7E955F45F9C9248D374CD6B0C0FEBF090F7B6037E6F39D6594A44DE ====

CD 1:
REM GENRE Metal
REM DATE 2013
REM DISCID 630C8F08
REM COMMENT “ExactAudioCopy v1.0b3”
PERFORMER “Black Sabbath”
TITLE “13”
FILE “01 – End Of The Beginning.wav” WAVE
TRACK 01 AUDIO
TITLE “End Of The Beginning”
PERFORMER “Black Sabbath”
INDEX 01 00:00:00
FILE “02 – God Is Dead.wav” WAVE
TRACK 02 AUDIO
TITLE “God Is Dead”
PERFORMER “Black Sabbath”
INDEX 01 00:00:00
FILE “03 – Loner.wav” WAVE
TRACK 03 AUDIO
TITLE “Loner”
PERFORMER “Black Sabbath”
INDEX 01 00:00:00
FILE “04 – Zeitgeist.wav” WAVE
TRACK 04 AUDIO
TITLE “Zeitgeist”
PERFORMER “Black Sabbath”
INDEX 01 00:00:00
FILE “05 – Age Of Reason.wav” WAVE
TRACK 05 AUDIO
TITLE “Age Of Reason”
PERFORMER “Black Sabbath”
INDEX 01 00:00:00
FILE “06 – Live Forever.wav” WAVE
TRACK 06 AUDIO
TITLE “Live Forever”
PERFORMER “Black Sabbath”
INDEX 01 00:00:00
FILE “07 – Damaged Soul.wav” WAVE
TRACK 07 AUDIO
TITLE “Damaged Soul”
PERFORMER “Black Sabbath”
INDEX 01 00:00:00
FILE “08 – Dear Father.wav” WAVE
TRACK 08 AUDIO
TITLE “Dear Father”
PERFORMER “Black Sabbath”
INDEX 01 00:00:00
CD 2:
REM GENRE Metal
REM DATE 2013
REM DISCID 27047804
REM COMMENT “ExactAudioCopy v1.0b3”
PERFORMER “Black Sabbath”
TITLE “13 (Bonus Disc)”
FILE “01 – Methademic.wav” WAVE
TRACK 01 AUDIO
TITLE “Methademic”
PERFORMER “Black Sabbath”
INDEX 01 00:00:00
FILE “02 – Peace Of Mind.wav” WAVE
TRACK 02 AUDIO
TITLE “Peace Of Mind”
PERFORMER “Black Sabbath”
INDEX 01 00:00:00
FILE “03 – Pariah.wav” WAVE
TRACK 03 AUDIO
TITLE “Pariah”
PERFORMER “Black Sabbath”
INDEX 01 00:00:00
FILE “04 – Naivete In Black.wav” WAVE
TRACK 04 AUDIO
TITLE “Naivete In Black”
PERFORMER “Black Sabbath”
INDEX 01 00:00:00

Leave a Reply

Your email address will not be published. Required fields are marked *

This site uses Akismet to reduce spam. Learn how your comment data is processed.