Black Flag – Who’s Got The 10½?




[Total: 0    Average: 0/5]

Artist: Black Flag
Year: 1986
Genre: Hardcore
Notes: Discogs
Add. Notes:
Cover incl.: Yes
Encoder: FLAC
Bitrate: ~1000 kBit/s (44.1 kHz/16 Bit/s)
Log & Cue incl.: Yes
Size: 474,12 MB
Password: “slam” (without ” “)


All Downloads/Hosters are compatible

Download 1
Share-online.biz
Rapidgator.net
KatFile.com
UploadRar.com
Download 2
Share-online.biz
Rapidgator.net
KatFile.com
UploadRar.com
Download 3
Share-online.biz
Rapidgator.net
KatFile.com
UploadRar.com

Tracklist:

1 - Loose Nut - 4:00
2 - I'm The One - 2:44
3 - Annihilate - 4:44
4 - Wasted - 1:01
5 - Bastard In Love - 3:00
6 - Modern Man - 3:34
7 - This Is Good - 3:22
8 - In My Head - 4:26
9 - Sinking - 5:04
10 - Jam - 4:05
11 - The Best One Yet - 2:35
12 - My War - 3:47
13 - Slip It In/Gimmie, Gimmie, Gimmie - 14:48
14 - Drinking And Driving - 3:00
15 - Louie, Louie - 4:13

EAC-Log, CUE-Sheed & NFO:

Click to open spoiler
Отчёт EAC об извлечении, выполненном 19. июля 2008, 10:40 для диска:
Black Flag / Who’s Got the 10 1/2?

Дисковод: Optiarc DVD RW AD-7203S Adapter: 2 ID: 0
Режим чтения: Достоверный (C2: нет, Точный поток: да, Отключение кэша: да)
Коррекция смещения при чтении: 48
Способность читать области Lead-in и Lead-out : Нет

Выходной формат: Внутренние WAV-операции
44.100 Гц; 16 бит; стерео

Другие параметры:
Заполнение пропущенных сэмплов тишиной : Да
Удаление блоков с тишиной в начале и конце : Нет
Встроенный Win32-интерфейс для Win NT/2000

Характеристики диапазона извлечения и сообщения об ошибках
Выбранный диапазон
Имя файла D:\Z_DISTRIBUTIVES\downtor\Black Flag\Who’s Got the\Who’s Got the.wav

Пиковый уровень 97.4 %
Качество диапазона 100.0 %
CRC 428B83AA
Копирование… OK

Ошибок не произошло

Конец отчёта

REM GENRE Punk/Hardcore
REM DATE 1986
REM DISCID EB0F400F
REM COMMENT “ExactAudioCopy v0.95b4”
PERFORMER “Black Flag”
TITLE “Who’s Got the 10 1/2? ”
FILE “Who’s Got the.flac” flac
TRACK 01 AUDIO
TITLE “Loose Nut”
PERFORMER “Black Flag”
INDEX 01 00:00:00
TRACK 02 AUDIO
TITLE “I’m the One”
PERFORMER “Black Flag”
INDEX 00 04:06:20
INDEX 01 04:06:22
TRACK 03 AUDIO
TITLE “Annihilate ”
PERFORMER “Black Flag”
INDEX 00 06:51:48
INDEX 01 06:51:50
TRACK 04 AUDIO
TITLE “Wasted ”
PERFORMER “Black Flag”
INDEX 01 11:35:00
TRACK 05 AUDIO
TITLE “Bastard in Love ”
PERFORMER “Black Flag”
INDEX 01 12:37:10
TRACK 06 AUDIO
TITLE “Modern Man ”
PERFORMER “Black Flag”
INDEX 00 15:45:57
INDEX 01 15:45:62
TRACK 07 AUDIO
TITLE “This is Good”
PERFORMER “Black Flag”
INDEX 01 19:24:42
TRACK 08 AUDIO
TITLE “In My Head ”
PERFORMER “Black Flag”
INDEX 01 22:47:60
TRACK 09 AUDIO
TITLE “Sinking ”
PERFORMER “Black Flag”
INDEX 01 27:15:60
TRACK 10 AUDIO
TITLE “Jam ”
PERFORMER “Black Flag”
INDEX 00 32:21:32
INDEX 01 32:21:50
TRACK 11 AUDIO
TITLE “The Best One Yet ”
PERFORMER “Black Flag”
INDEX 01 36:27:30
TRACK 12 AUDIO
TITLE “My War ”
PERFORMER “Black Flag”
INDEX 00 39:02:44
INDEX 01 39:02:67
TRACK 13 AUDIO
TITLE “Slip It In / Gimme Gimme Gimme”
PERFORMER “Black Flag”
INDEX 00 42:53:49
INDEX 01 42:53:67
TRACK 14 AUDIO
TITLE “Drinking and Driving ”
PERFORMER “Black Flag”
INDEX 01 57:48:27
TRACK 15 AUDIO
TITLE “Louie, Louie”
PERFORMER “Black Flag”
INDEX 00 60:49:16
INDEX 01 60:49:30


Spread the Download

Leave a Reply

Your email address will not be published. Required fields are marked *

Enter the text from the image below
 

This site uses Akismet to reduce spam. Learn how your comment data is processed.