Black Flag – The First Four Years




Artist: Black Flag
Year: 1981
Genre: Hardcore
Notes: Discogs
Add. Notes:
Cover incl.: Yes
Encoder: FLAC
Bitrate: ~900 kBit/s (44.1 kHz/16 Bit/s)
Log & Cue incl.: Yes
Size: 168,26 MB
Password: “slam” (without ” “)


All Downloads/Hosters are compatible

Download 1
Turbobit.net
KatFile.com
Rapidgator.net
Download 2
Turbobit.net
KatFile.com
Rapidgator.net

Tracklist:

1 - Nervous Breakdown - 2:07
2 - Fix Me - 0:55
3 - I've Had It - 1:20
4 - Wasted - 0:51
5 - Jealous Again - 1:47
6 - Revenge - 0:58
7 - White Minority - 1:04
8 - No Values - 1:04
9 - You Bet We've Got Something Personal Against You! - 
0:51
10 - Clocked In - 1:30
11 - Six Pack - 2:18
12 - I've Heard It Before - 1:38
13 - American Waste - 1:30
14 - Machine - 1:25
15 - Louie Louie - 1:17
16 - Damaged I - 4:05

EAC-Log, CUE-Sheed & NFO:

Click to open spoiler
Отчёт EAC об извлечении, выполненном 19. июля 2008, 9:41 для диска:
Black Flag / The First Four Years

Дисковод: Optiarc DVD RW AD-7203S Adapter: 2 ID: 0
Режим чтения: Достоверный (C2: нет, Точный поток: да, Отключение кэша: да)
Коррекция смещения при чтении: 48
Способность читать области Lead-in и Lead-out : Нет

Выходной формат: Внутренние WAV-операции
44.100 Гц; 16 бит; стерео

Другие параметры:
Заполнение пропущенных сэмплов тишиной : Да
Удаление блоков с тишиной в начале и конце : Нет
Встроенный Win32-интерфейс для Win NT/2000

Характеристики диапазона извлечения и сообщения об ошибках
Выбранный диапазон
Имя файла D:\Z_DISTRIBUTIVES\downtor\Black Flag\The First Four Years\The First Four Years.wav

Пиковый уровень 100.0 %
Качество диапазона 100.0 %
CRC 17737A6C
Копирование… OK

Ошибок не произошло

Конец отчёта

REM GENRE Hardcore/Punk
REM DATE 1981
REM DISCID C1061610
REM COMMENT “ExactAudioCopy v0.95b4”
CATALOG 0000000000000
PERFORMER “Black Flag”
TITLE “The First Four Years”
FILE “The First Four Years.flac” flac
TRACK 01 AUDIO
TITLE “Nervous Breakdown”
PERFORMER “Black Flag”
INDEX 00 00:00:00
INDEX 01 00:00:37
TRACK 02 AUDIO
TITLE “Fix Me”
PERFORMER “Black Flag”
INDEX 00 02:07:36
INDEX 01 02:10:32
TRACK 03 AUDIO
TITLE “I’ve Had It”
PERFORMER “Black Flag”
INDEX 00 03:06:25
INDEX 01 03:08:52
TRACK 04 AUDIO
TITLE “Wasted”
PERFORMER “Black Flag”
INDEX 00 04:32:15
INDEX 01 04:34:50
TRACK 05 AUDIO
TITLE “Jealous Again”
PERFORMER “Black Flag”
INDEX 00 05:25:01
INDEX 01 05:25:57
TRACK 06 AUDIO
TITLE “Revenge”
PERFORMER “Black Flag”
INDEX 00 07:14:67
INDEX 01 07:17:62
TRACK 07 AUDIO
TITLE “White Minority”
PERFORMER “Black Flag”
INDEX 00 08:16:03
INDEX 01 08:17:40
TRACK 08 AUDIO
TITLE “No Values”
PERFORMER “Black Flag”
INDEX 01 09:20:17
TRACK 09 AUDIO
TITLE “You bet we’ve got something personal against you!”
PERFORMER “Black Flag”
INDEX 00 11:04:36
INDEX 01 11:05:70
TRACK 10 AUDIO
TITLE “Clocked in”
PERFORMER “Black Flag”
INDEX 00 11:57:49
INDEX 01 11:58:50
TRACK 11 AUDIO
TITLE “Six pack”
PERFORMER “Black Flag”
INDEX 00 13:30:23
INDEX 01 13:32:02
TRACK 12 AUDIO
TITLE “I’ve Heard it Before”
PERFORMER “Black Flag”
INDEX 00 15:50:33
INDEX 01 15:51:47
TRACK 13 AUDIO
TITLE “American Waste”
PERFORMER “Black Flag”
INDEX 00 17:30:52
INDEX 01 17:31:27
TRACK 14 AUDIO
TITLE “Machine”
PERFORMER “Black Flag”
INDEX 00 19:02:31
INDEX 01 19:04:40
TRACK 15 AUDIO
TITLE “Louie Louie”
PERFORMER “Black Flag”
INDEX 00 20:30:32
INDEX 01 20:32:37
TRACK 16 AUDIO
TITLE “Damaged 1”
PERFORMER “Black Flag”
INDEX 00 21:50:39
INDEX 01 21:51:17


Leave a Reply

Your email address will not be published. Required fields are marked *

This site uses Akismet to reduce spam. Learn how your comment data is processed.