Black Flag – Slip It In




Artist: Black Flag
Year: 1984/1987
Genre: Hardcore
Notes: Discogs
Add. Notes:
Cover incl.: Yes
Encoder: FLAC
Bitrate: ~900 kBit/s (44.1 kHz/16 Bit/s)
Log & Cue incl.: Yes
Size: 252,87 MB
Password: “slam” (without ” “)


All Downloads/Hosters are compatible

Download 1
Turbobit.net
Rapidgator.net
KatFile.com
UploadRar.com
Download 2
Turbobit.net
Rapidgator.net
KatFile.com
UploadRar.com

Tracklist:

1 - Slip It In - 6:17
2 - Black Coffee - 4:55
3 - Wound Up - 4:23
4 - Rat's Eyes - 4:07
5 - Obliteration - 5:56
6 - The Bars - 4:37
7 - My Ghetto - 2:05
8 - You're Not Evil - 7:10

EAC-Log, CUE-Sheed & NFO:

Click to open spoiler
Отчёт EAC об извлечении, выполненном 19. июля 2008, 10:10 для диска:
Black Flag / Slip It In

Дисковод: Optiarc DVD RW AD-7203S Adapter: 2 ID: 0
Режим чтения: Достоверный (C2: нет, Точный поток: да, Отключение кэша: да)
Коррекция смещения при чтении: 48
Способность читать области Lead-in и Lead-out : Нет

Выходной формат: Внутренние WAV-операции
44.100 Гц; 16 бит; стерео

Другие параметры:
Заполнение пропущенных сэмплов тишиной : Да
Удаление блоков с тишиной в начале и конце : Нет
Встроенный Win32-интерфейс для Win NT/2000

Характеристики диапазона извлечения и сообщения об ошибках
Выбранный диапазон
Имя файла D:\Z_DISTRIBUTIVES\downtor\Black Flag\Slip It In\Slip It In.wav

Пиковый уровень 92.5 %
Качество диапазона 99.9 %
CRC 59A52A0C
Копирование… OK

Ошибок не произошло

Конец отчёта

REM GENRE Punk/Hardcore
REM DATE 1984
REM DISCID 71094708
REM COMMENT “ExactAudioCopy v0.95b4”
CATALOG 0000000000000
PERFORMER “Black Flag”
TITLE “Slip It In”
FILE “Slip It In.flac” flac
TRACK 01 AUDIO
TITLE “Slip It In”
PERFORMER “Black Flag”
INDEX 00 00:00:00
INDEX 01 00:00:37
TRACK 02 AUDIO
TITLE “Black Coffee”
PERFORMER “Black Flag”
INDEX 00 06:16:59
INDEX 01 06:18:07
TRACK 03 AUDIO
TITLE “Wound Up”
PERFORMER “Black Flag”
INDEX 01 11:13:67
TRACK 04 AUDIO
TITLE “Rat’s Eyes”
PERFORMER “Black Flag”
INDEX 00 15:37:06
INDEX 01 15:37:17
TRACK 05 AUDIO
TITLE “Obliteration”
PERFORMER “Black Flag”
INDEX 01 19:44:57
TRACK 06 AUDIO
TITLE “The Bars”
PERFORMER “Black Flag”
INDEX 01 25:41:27
TRACK 07 AUDIO
TITLE “My Ghetto”
PERFORMER “Black Flag”
INDEX 01 30:19:15
TRACK 08 AUDIO
TITLE “You’re Not Evil”
PERFORMER “Black Flag”
INDEX 00 32:23:59
INDEX 01 32:24:35


Leave a Reply

Your email address will not be published. Required fields are marked *

This site uses Akismet to reduce spam. Learn how your comment data is processed.