Black Flag – My War




Artist: Black Flag
Year: 1984/1987
Genre: Hardcore
Notes: Discogs
Add. Notes:
Cover incl.: Yes
Encoder: FLAC
Bitrate: ~800 kBit/s (44.1 kHz/16 Bit/s)
Log & Cue incl.: Yes
Size: 223,55 MB
Password: “slam” (without ” “)


All Downloads/Hosters are compatible

Download 1
Turbobit.net
Rapidgator.net
UploadEver.com
KatFile.com
UsersDrive.com
Download 2
Turbobit.net
Rapidgator.net
UploadEver.com
KatFile.com
UsersDrive.com
Download 3
Turbobit.net
Rapidgator.net
UploadEver.com
KatFile.com
UsersDrive.com

Tracklist:

1 - My War - 3:45
2 - Can't Decide - 5:20
3 - Beat My Head Against The Wall - 2:32
4 - I Love You - 3:26
5 - Forever Time - 2:29
6 - The Swinging Man - 3:02
7 - Nothing Left Inside - 6:32
8 - Three Nights - 6:12
9 - Scream - 6:48

EAC-Log, CUE-Sheed & NFO:

Click to open spoiler
Отчёт EAC об извлечении, выполненном 19. июля 2008, 10:01 для диска:
Black Flag / My War

Дисковод: Optiarc DVD RW AD-7203S Adapter: 2 ID: 0
Режим чтения: Достоверный (C2: нет, Точный поток: да, Отключение кэша: да)
Коррекция смещения при чтении: 48
Способность читать области Lead-in и Lead-out : Нет

Выходной формат: Внутренние WAV-операции
44.100 Гц; 16 бит; стерео

Другие параметры:
Заполнение пропущенных сэмплов тишиной : Да
Удаление блоков с тишиной в начале и конце : Нет
Встроенный Win32-интерфейс для Win NT/2000

Характеристики диапазона извлечения и сообщения об ошибках
Выбранный диапазон
Имя файла D:\Z_DISTRIBUTIVES\downtor\Black Flag\My War\My War.wav

Пиковый уровень 85.2 %
Качество диапазона 100.0 %
CRC E56B59B0
Копирование… OK

Ошибок не произошло

Конец отчёта

REM GENRE Punk/Hardcore
REM DATE 1983
REM DISCID 5E097909
REM COMMENT “ExactAudioCopy v0.95b4”
CATALOG 0000000000000
PERFORMER “Black Flag”
TITLE “My War”
FILE “My War.flac” flac
TRACK 01 AUDIO
TITLE “My War”
PERFORMER “Black Flag”
INDEX 00 00:00:00
INDEX 01 00:00:37
TRACK 02 AUDIO
TITLE “Can’t Decide”
PERFORMER “Black Flag”
INDEX 01 03:46:62
TRACK 03 AUDIO
TITLE “Beat My Head Against the Wall”
PERFORMER “Black Flag”
INDEX 01 09:09:20
TRACK 04 AUDIO
TITLE “I Love You”
PERFORMER “Black Flag”
INDEX 00 11:43:24
INDEX 01 11:43:35
TRACK 05 AUDIO
TITLE “Forever Time”
PERFORMER “Black Flag”
INDEX 01 15:10:35
TRACK 06 AUDIO
TITLE “The Swinging Man”
PERFORMER “Black Flag”
INDEX 01 17:41:07
TRACK 07 AUDIO
TITLE “Nothing Left Inside”
PERFORMER “Black Flag”
INDEX 01 20:45:45
TRACK 08 AUDIO
TITLE “Three Nights”
PERFORMER “Black Flag”
INDEX 00 27:18:09
INDEX 01 27:30:10
TRACK 09 AUDIO
TITLE “Scream”
PERFORMER “Black Flag”
INDEX 00 33:32:68
INDEX 01 33:32:72


Leave a Reply

Your email address will not be published. Required fields are marked *

Enter the text from the image below
 

This site uses Akismet to reduce spam. Learn how your comment data is processed.