Black Flag – Loose Nut (Reissue)




Artist: Black Flag
Year: 1985/1987
Genre: Punk
Notes: Discogs
Add. Notes: Reissue
Cover incl.: Yes
Encoder: FLAC
Bitrate: ~900 kBit/s (44.1 kHz/16 Bit/s)
Log & Cue incl.: Yes
Size: 225,23 MB
Password: “slam” (without ” “)


All Downloads/Hosters are compatible

Download 1
Turbobit.net
KatFile.com
Rapidgator.net
Usersdrive.com
Download 2
Turbobit.net
KatFile.com
Rapidgator.net
Usersdrive.com

Tracklist:

1 - Loose Nut - 4:32
2 - Bastard In Love - 3:15
3 - Annihilate This Week - 4:43
4 - Best One Yet - 2:33
5 - Modern Man - 3:07
6 - This Is Good - 3:25
7 - I'm The One - 3:10
8 - Sinking - 4:32
9 - Now She's Black - 4:50

EAC-Log, CUE-Sheed & NFO:

Click to open spoiler
Отчёт EAC об извлечении, выполненном 19. июля 2008, 10:19 для диска:
Black Flag / Loose Nut

Дисковод: Optiarc DVD RW AD-7203S Adapter: 2 ID: 0
Режим чтения: Достоверный (C2: нет, Точный поток: да, Отключение кэша: да)
Коррекция смещения при чтении: 48
Способность читать области Lead-in и Lead-out : Нет

Выходной формат: Внутренние WAV-операции
44.100 Гц; 16 бит; стерео

Другие параметры:
Заполнение пропущенных сэмплов тишиной : Да
Удаление блоков с тишиной в начале и конце : Нет
Встроенный Win32-интерфейс для Win NT/2000

Характеристики диапазона извлечения и сообщения об ошибках
Выбранный диапазон
Имя файла D:\Z_DISTRIBUTIVES\downtor\Black Flag\Loose Nut\Loose Nut.wav

Пиковый уровень 100.0 %
Качество диапазона 99.9 %
CRC 28CF4190
Копирование… OK

Ошибок не произошло

Конец отчёта

REM GENRE Hardcore/Punk
REM DATE 1984
REM DISCID 7E082909
REM COMMENT “ExactAudioCopy v0.95b4”
CATALOG 0000000000000
PERFORMER “Black Flag”
TITLE “Loose Nut”
FILE “Loose Nut.flac” flac
TRACK 01 AUDIO
TITLE “Loose Nut”
PERFORMER “Black Flag”
INDEX 00 00:00:00
INDEX 01 00:00:37
TRACK 02 AUDIO
TITLE “Bastard in Love”
PERFORMER “Black Flag”
INDEX 00 04:33:24
INDEX 01 04:36:70
TRACK 03 AUDIO
TITLE “Annihilate This Week”
PERFORMER “Black Flag”
INDEX 00 07:54:70
INDEX 01 07:57:17
TRACK 04 AUDIO
TITLE “Best One Yet”
PERFORMER “Black Flag”
INDEX 00 12:39:60
INDEX 01 12:42:62
TRACK 05 AUDIO
TITLE “Modern Man”
PERFORMER “Black Flag”
INDEX 00 15:17:26
INDEX 01 15:20:40
TRACK 06 AUDIO
TITLE “This is Good”
PERFORMER “Black Flag”
INDEX 00 18:29:46
INDEX 01 18:31:52
TRACK 07 AUDIO
TITLE “Im the One”
PERFORMER “Black Flag”
INDEX 00 22:03:65
INDEX 01 22:06:27
TRACK 08 AUDIO
TITLE “Sinking”
PERFORMER “Black Flag”
INDEX 00 25:18:74
INDEX 01 25:21:27
TRACK 09 AUDIO
TITLE “Now Shes Black”
PERFORMER “Black Flag”
INDEX 00 29:54:54
INDEX 01 29:57:40


Leave a Reply

Your email address will not be published. Required fields are marked *

This site uses Akismet to reduce spam. Learn how your comment data is processed.