Black Flag – In My Head




Artist: Black Flag
Year: 1985
Genre: Hardcore
Notes: Discogs
Add. Notes:
Cover incl.: Yes
Encoder: FLAC
Bitrate: ~900 kBit/s (44.1 kHz/16 Bit/s)
Log & Cue incl.: Yes
Size: 311,97 MB
Password: “slam” (without ” “)


All Downloads/Hosters are compatible

Download 1
Turbobit.net
Rapidgator.net
KatFile.com
UploadRar.com
Download 2
Turbobit.net
Rapidgator.net
KatFile.com
UploadRar.com

Tracklist:

1 - Paralyzed - 2:39
2 - The Crazy Girl - 2:46
3 - Black Love - 2:42
4 - White Hot - 4:59
5 - In My Head - 4:30
6 - Out Of This World - 2:13
7 - I Can See You - 3:22
8 - Drinking And Driving - 3:16
9 - Retired At 21 - 4:56
10 - Society's Tease - 6:09
11 - It's All Up To You - 5:14
12 - You Let Me Down - 3:40

EAC-Log, CUE-Sheed & NFO:

Click to open spoiler
Отчёт EAC об извлечении, выполненном 19. июля 2008, 10:29 для диска:
Black Flag / In My Head

Дисковод: Optiarc DVD RW AD-7203S Adapter: 2 ID: 0
Режим чтения: Достоверный (C2: нет, Точный поток: да, Отключение кэша: да)
Коррекция смещения при чтении: 48
Способность читать области Lead-in и Lead-out : Нет

Выходной формат: Внутренние WAV-операции
44.100 Гц; 16 бит; стерео

Другие параметры:
Заполнение пропущенных сэмплов тишиной : Да
Удаление блоков с тишиной в начале и конце : Нет
Встроенный Win32-интерфейс для Win NT/2000

Характеристики диапазона извлечения и сообщения об ошибках
Выбранный диапазон
Имя файла D:\Z_DISTRIBUTIVES\downtor\Black Flag\In My Head\In My Head.wav

Пиковый уровень 99.5 %
Качество диапазона 99.9 %
CRC BF1A2770
Копирование… OK

Ошибок не произошло

Конец отчёта

REM GENRE Hardcore/Punk
REM DATE 1985
REM DISCID 870B1E0C
REM COMMENT “ExactAudioCopy v0.95b4”
CATALOG 0000000000000
PERFORMER “Black Flag”
TITLE “In My Head”
FILE “In My Head.flac” flac
TRACK 01 AUDIO
TITLE “Paralyzed”
PERFORMER “Black Flag”
INDEX 00 00:00:00
INDEX 01 00:00:37
TRACK 02 AUDIO
TITLE “The Crazy Girl”
PERFORMER “Black Flag”
INDEX 00 02:42:11
INDEX 01 02:42:60
TRACK 03 AUDIO
TITLE “Black Love”
PERFORMER “Black Flag”
INDEX 00 05:32:69
INDEX 01 05:34:42
TRACK 04 AUDIO
TITLE “White Hot”
PERFORMER “Black Flag”
INDEX 00 08:19:69
INDEX 01 08:20:50
TRACK 05 AUDIO
TITLE “In My Head”
PERFORMER “Black Flag”
INDEX 00 13:25:05
INDEX 01 13:26:57
TRACK 06 AUDIO
TITLE “Out of this World”
PERFORMER “Black Flag”
INDEX 00 18:02:40
INDEX 01 18:05:30
TRACK 07 AUDIO
TITLE “I Can See You”
PERFORMER “Black Flag”
INDEX 00 20:18:55
INDEX 01 20:20:57
TRACK 08 AUDIO
TITLE “Drinking and Driving”
PERFORMER “Black Flag”
INDEX 00 23:39:60
INDEX 01 23:41:22
TRACK 09 AUDIO
TITLE “Retired at 21”
PERFORMER “Black Flag”
INDEX 00 27:02:64
INDEX 01 27:04:62
TRACK 10 AUDIO
TITLE “Society’s Tease”
PERFORMER “Black Flag”
INDEX 01 32:08:15
TRACK 11 AUDIO
TITLE “It’s All Up to You”
PERFORMER “Black Flag”
INDEX 00 38:22:37
INDEX 01 38:23:27
TRACK 12 AUDIO
TITLE “You Let Me Down”
PERFORMER “Black Flag”
INDEX 00 43:42:28
INDEX 01 43:44:00


Leave a Reply

Your email address will not be published. Required fields are marked *

Enter the text from the image below
 

This site uses Akismet to reduce spam. Learn how your comment data is processed.