Black Flag – Everything Went Black




Artist: Black Flag
Year: 1982
Genre: Hardcore
Notes: Discogs
Add. Notes:
Cover incl.: Yes
Encoder: FLAC
Bitrate: ~800 kBit/s (44.1 kHz/16 Bit/s)
Log & Cue incl.: Yes
Size: 373,48 MB
Password: “slam” (without ” “)


All Downloads/Hosters are compatible

Download 1
Turbobit.net
Rapidgator.net
KatFile.com
UploadRar.com
Download 2
Turbobit.net
Rapidgator.net
KatFile.com
UploadRar.com
Download 3
Turbobit.net
Rapidgator.net
KatFile.com
UploadRar.com

Tracklist:

Johnny 'Bob' Goldstein
1 - Gimmie Gimmie Gimmie - 1:57
2 - I Don't Care - 0:58
3 - White Minority - 1:09
4 - No Values - 1:58
5 - Revenge - 1:01
6 - Depression - 2:07
7 - Clocked In - 1:29
8 - Police Story - 1:30
9 - Wasted - 0:42
Jealous Again Era-Chavo
10 - Gimmie Gimmie Gimmie - 1:40
11 - Depression - 2:40
12 - Police Story - 1:33
13 - Clocked In - 1:36
14 - My Rules - 0:58
Jealous Again Era-Dez
15 - Jealous Again - 2:24
16 - Police Story - 1:35
17 - Damaged I - 2:05
18 - Louie Louie - 1:27
19 - No More - 3:00
20 - Room 13 - 2:06
21 - Depression - 2:40
22 - Damaged II - 4:13
23 - Padded Cell - 1:50
24 - Gimmie Gimmie Gimmie - 1:46
25 - Crass Commercialism - 17:34

EAC-Log, CUE-Sheed & NFO:

Click to open spoiler
Отчёт EAC об извлечении, выполненном 19. июля 2008, 9:33 для диска:
Black Flag / Everything Went Black

Дисковод: Optiarc DVD RW AD-7203S Adapter: 2 ID: 0
Режим чтения: Достоверный (C2: нет, Точный поток: да, Отключение кэша: да)
Коррекция смещения при чтении: 48
Способность читать области Lead-in и Lead-out : Нет

Выходной формат: Внутренние WAV-операции
44.100 Гц; 16 бит; стерео

Другие параметры:
Заполнение пропущенных сэмплов тишиной : Да
Удаление блоков с тишиной в начале и конце : Нет
Встроенный Win32-интерфейс для Win NT/2000

Характеристики диапазона извлечения и сообщения об ошибках
Выбранный диапазон
Имя файла D:\Z_DISTRIBUTIVES\downtor\Black Flag\Everything Went Black\Black Flag – Everything Went Black.wav

Пиковый уровень 100.0 %
Качество диапазона 100.0 %
CRC C3FB47AA
Копирование… OK

Ошибок не произошло

Конец отчёта

REM GENRE Hardcore/Punk
REM DATE 1981
REM DISCID 610EA119
REM COMMENT “ExactAudioCopy v0.95b4”
CATALOG 0000000000000
PERFORMER “Black Flag”
TITLE “Everything Went Black”
FILE “Black Flag – Everything Went Black.flac” flac
TRACK 01 AUDIO
TITLE “Gimmie Gimmie Gimmie”
PERFORMER “Black Flag”
INDEX 00 00:00:00
INDEX 01 00:00:37
TRACK 02 AUDIO
TITLE “I Don’t Care”
PERFORMER “Black Flag”
INDEX 00 01:59:39
INDEX 01 02:00:02
TRACK 03 AUDIO
TITLE “White Minority”
PERFORMER “Black Flag”
INDEX 00 02:58:12
INDEX 01 02:59:12
TRACK 04 AUDIO
TITLE “No Values”
PERFORMER “Black Flag”
INDEX 00 04:10:37
INDEX 01 04:11:15
TRACK 05 AUDIO
TITLE “Revenge”
PERFORMER “Black Flag”
INDEX 00 06:10:19
INDEX 01 06:10:60
TRACK 06 AUDIO
TITLE “Depression”
PERFORMER “Black Flag”
INDEX 00 07:15:48
INDEX 01 07:16:07
TRACK 07 AUDIO
TITLE “Clocked In”
PERFORMER “Black Flag”
INDEX 00 09:24:73
INDEX 01 09:26:17
TRACK 08 AUDIO
TITLE “Police Story”
PERFORMER “Black Flag”
INDEX 00 10:56:50
INDEX 01 10:57:07
TRACK 09 AUDIO
TITLE “Wasted”
PERFORMER “Black Flag”
INDEX 00 12:27:52
INDEX 01 12:29:30
TRACK 10 AUDIO
TITLE “Gimmie Gimmie Gimmie”
PERFORMER “Black Flag”
INDEX 00 13:11:24
INDEX 01 13:14:02
TRACK 11 AUDIO
TITLE “Depression”
PERFORMER “Black Flag”
INDEX 00 14:55:21
INDEX 01 14:56:02
TRACK 12 AUDIO
TITLE “Police Story”
PERFORMER “Black Flag”
INDEX 00 17:37:38
INDEX 01 17:38:37
TRACK 13 AUDIO
TITLE “Clocked In”
PERFORMER “Black Flag”
INDEX 00 19:11:57
INDEX 01 19:12:12
TRACK 14 AUDIO
TITLE “My Rules”
PERFORMER “Black Flag”
INDEX 00 20:49:10
INDEX 01 20:49:62
TRACK 15 AUDIO
TITLE “Jealous Again”
PERFORMER “Black Flag”
INDEX 00 21:51:20
INDEX 01 21:54:37
TRACK 16 AUDIO
TITLE “Police Story”
PERFORMER “Black Flag”
INDEX 00 24:15:30
INDEX 01 24:16:05
TRACK 17 AUDIO
TITLE “Damaged I”
PERFORMER “Black Flag”
INDEX 00 25:52:21
INDEX 01 25:52:65
TRACK 18 AUDIO
TITLE “Louie Louie”
PERFORMER “Black Flag”
INDEX 00 28:00:55
INDEX 01 28:02:17
TRACK 19 AUDIO
TITLE “No More”
PERFORMER “Black Flag”
INDEX 00 29:27:64
INDEX 01 29:29:42
TRACK 20 AUDIO
TITLE “Room 13”
PERFORMER “Black Flag”
INDEX 00 32:30:10
INDEX 01 32:31:57
TRACK 21 AUDIO
TITLE “Depression”
PERFORMER “Black Flag”
INDEX 00 34:38:74
INDEX 01 34:39:65
TRACK 22 AUDIO
TITLE “Damaged II”
PERFORMER “Black Flag”
INDEX 00 37:18:70
INDEX 01 37:20:45
TRACK 23 AUDIO
TITLE “Padded Cell”
PERFORMER “Black Flag”
INDEX 00 41:33:33
INDEX 01 41:33:57
TRACK 24 AUDIO
TITLE “Gimmie Gimmie Gimmie”
PERFORMER “Black Flag”
INDEX 00 43:24:72
INDEX 01 43:27:47
TRACK 25 AUDIO
TITLE “Crass Commercialism”
PERFORMER “Black Flag”
INDEX 00 45:13:45
INDEX 01 45:15:62


Leave a Reply

Your email address will not be published. Required fields are marked *

This site uses Akismet to reduce spam. Learn how your comment data is processed.