Black Flag – Damaged




Artist: Black Flag
Year: 1981/1988
Genre: Hardcore
Notes: Discogs
Add. Notes:
Cover incl.: Yes
Encoder: FLAC
Bitrate: ~900 kBit/s (44.1 kHz/16 Bit/s)
Log & Cue incl.: Yes
Size: 226,25 MB
Password: “slam” (without ” “)


All Downloads/Hosters are compatible

Download 1
Turbobit.net
Rapidgator.net
KatFile.com
UsersDrive.com
UploadRar.com
Download 2
Turbobit.net
Rapidgator.net
KatFile.com
UsersDrive.com
UploadRar.com
Download 3
Turbobit.net
Rapidgator.net
KatFile.com
UsersDrive.com
UploadRar.com

Tracklist:

1 - Rise Above - 2:24
2 - Spray Paint (The Walls) - 0:31
3 - Six Pack - 2:19
4 - What I See - 1:54
5 - T.V. Party - 3:29
6 - Thirsty And Miserable - 2:05
7 - Police Story - 1:30
8 - Gimmie Gimmie Gimmie - 1:46
9 - Depression - 2:27
10 - Room 13 - 2:03
11 - Damaged II - 3:21
12 - No More - 2:24
13 - Padded Cell - 1:45
14 - Life Of Pain - 2:49
15 - Damaged I - 3:48

EAC-Log, CUE-Sheed & NFO:

Click to open spoiler
Отчёт EAC об извлечении, выполненном 19. июля 2008, 9:49 для диска:
Black Flag / Damaged

Дисковод: Optiarc DVD RW AD-7203S Adapter: 2 ID: 0
Режим чтения: Достоверный (C2: нет, Точный поток: да, Отключение кэша: да)
Коррекция смещения при чтении: 48
Способность читать области Lead-in и Lead-out : Нет

Выходной формат: Внутренние WAV-операции
44.100 Гц; 16 бит; стерео

Другие параметры:
Заполнение пропущенных сэмплов тишиной : Да
Удаление блоков с тишиной в начале и конце : Нет
Встроенный Win32-интерфейс для Win NT/2000

Характеристики диапазона извлечения и сообщения об ошибках
Выбранный диапазон
Имя файла D:\Z_DISTRIBUTIVES\downtor\Black Flag\Damaged\Damaged.wav

Пиковый уровень 78.1 %
Качество диапазона 100.0 %
CRC EE61C0C6
Копирование… OK

Ошибок не произошло

Конец отчёта

REM GENRE Punk/Hardcore
REM DATE 1981
REM DISCID D808380F
REM COMMENT “ExactAudioCopy v0.95b4”
CATALOG 0000000000000
PERFORMER “Black Flag”
TITLE “Damaged”
FILE “Damaged.flac” flac
TRACK 01 AUDIO
TITLE “Rise Above”
PERFORMER “Black Flag”
INDEX 00 00:00:00
INDEX 01 00:00:37
TRACK 02 AUDIO
TITLE “Spray Paint”
PERFORMER “Black Flag”
INDEX 00 02:26:61
INDEX 01 02:27:05
TRACK 03 AUDIO
TITLE “Six Pack”
PERFORMER “Black Flag”
INDEX 00 03:00:24
INDEX 01 03:00:42
TRACK 04 AUDIO
TITLE “What I See”
PERFORMER “Black Flag”
INDEX 00 05:20:73
INDEX 01 05:21:05
TRACK 05 AUDIO
TITLE “TV Party”
PERFORMER “Black Flag”
INDEX 00 07:16:39
INDEX 01 07:16:65
TRACK 06 AUDIO
TITLE “Thirsty and Miserable”
PERFORMER “Black Flag”
INDEX 00 10:46:66
INDEX 01 10:48:05
TRACK 07 AUDIO
TITLE “Police Story”
PERFORMER “Black Flag”
INDEX 01 12:53:67
TRACK 08 AUDIO
TITLE “Gimmie Gimmie Gimmie”
PERFORMER “Black Flag”
INDEX 00 14:25:45
INDEX 01 14:26:40
TRACK 09 AUDIO
TITLE “Depression”
PERFORMER “Black Flag”
INDEX 00 16:13:00
INDEX 01 16:13:50
TRACK 10 AUDIO
TITLE “Room 13”
PERFORMER “Black Flag”
INDEX 00 18:41:30
INDEX 01 18:42:40
TRACK 11 AUDIO
TITLE “Damaged II”
PERFORMER “Black Flag”
INDEX 00 20:46:02
INDEX 01 20:47:20
TRACK 12 AUDIO
TITLE “No More”
PERFORMER “Black Flag”
INDEX 00 24:09:41
INDEX 01 24:10:22
TRACK 13 AUDIO
TITLE “Padded Cell”
PERFORMER “Black Flag”
INDEX 00 26:35:24
INDEX 01 26:36:17
TRACK 14 AUDIO
TITLE “Life of Pain”
PERFORMER “Black Flag”
INDEX 00 28:22:35
INDEX 01 28:23:20
TRACK 15 AUDIO
TITLE “Damaged I”
PERFORMER “Black Flag”
INDEX 00 31:12:60
INDEX 01 31:13:55


Leave a Reply

Your email address will not be published. Required fields are marked *

This site uses Akismet to reduce spam. Learn how your comment data is processed.