Biohazard – Urban Discipline (Japanese Edition)




Artist: Biohazard
Year: 1992
Genre: Hardcore
Notes: Discogs
Add. Notes: Japanese Edition
Cover incl.: Yes
Encoder: FLAC
Bitrate: ~1000 kBit/s (44.1 kHz/16 Bit/s)
Log & Cue incl.: Yes
Size: 509,6 MB
Password: “slam” (without ” “)


All Downloads/Hosters are compatible

Download 1
Turbobit.net
Rapidgator.net
UploadEver.com
KatFile.com
UsersDrive.com
Download 2
Turbobit.net
Rapidgator.net
UploadEver.com
KatFile.com
UsersDrive.com
Download 3
Turbobit.net
Rapidgator.net
UploadEver.com
KatFile.com
UsersDrive.com

Tracklist:

1 - Chamber Spins Three - 3:42
2 - Punishment - 4:45
3 - Shades Of Grey - 3:27
4 - Business - 4:05
5 - Black And White And Red All Over - 4:10
6 - Man With A Promise - 3:21
7 - Disease - 4:01
8 - Urban Discipline - 5:37
9 - Loss - 5:21
10 - Wrong Side Of The Tracks - 3:37
11 - Mistaken Identity - 4:35
12 - We're Only Gonna Die (From Our Own Arrogance) - 
2:18
13 - Tears Of Blood - 8:52

EAC-Log, CUE-Sheed & NFO:

Click to open spoiler
Exact Audio Copy V1.0 beta 3 from 29. August 2011

EAC extraction logfile from 29. July 2013, 22:56

Biohazard / Urban Discipline [Japan, RRCY-13029]

Used drive : TSSTcorpCDDVDW TS-L633J Adapter: 0 ID: 1

Read mode : Secure
Utilize accurate stream : Yes
Defeat audio cache : Yes
Make use of C2 pointers : No

Read offset correction : 6
Overread into Lead-In and Lead-Out : No
Fill up missing offset samples with silence : Yes
Delete leading and trailing silent blocks : No
Null samples used in CRC calculations : Yes
Used interface : Native Win32 interface for Win NT & 2000

Used output format : Internal WAV Routines
Sample format : 44.100 Hz; 16 Bit; Stereo

TOC of the extracted CD

Track | Start | Length | Start sector | End sector
———————————————————
1 | 0:00.00 | 3:42.02 | 0 | 16651
2 | 3:42.02 | 4:45.35 | 16652 | 38061
3 | 8:27.37 | 3:27.33 | 38062 | 53619
4 | 11:54.70 | 4:05.20 | 53620 | 72014
5 | 16:00.15 | 4:09.47 | 72015 | 90736
6 | 20:09.62 | 3:20.40 | 90737 | 105776
7 | 23:30.27 | 4:01.33 | 105777 | 123884
8 | 27:31.60 | 5:37.32 | 123885 | 149191
9 | 33:09.17 | 5:21.33 | 149192 | 173299
10 | 38:30.50 | 3:36.62 | 173300 | 189561
11 | 42:07.37 | 4:35.25 | 189562 | 210211
12 | 46:42.62 | 2:17.65 | 210212 | 220551
13 | 49:00.52 | 8:52.13 | 220552 | 260464

Range status and errors

Selected range

Filename D:\spv-av\BIOHAZARD – [Japanese Ed.]\[1992] [CD] Urban Discipline [Japan, RRCY-13029]\Biohazard – Urban Discipline [Japan, RRCY-13029].wav

Peak level 100.0 %
Extraction speed 2.9 X
Range quality 100.0 %
Test CRC A6B37517
Copy CRC A6B37517
Copy OK

No errors occurred

AccurateRip summary

Track 1 not present in database
Track 2 not present in database
Track 3 not present in database
Track 4 not present in database
Track 5 not present in database
Track 6 not present in database
Track 7 not present in database
Track 8 not present in database
Track 9 not present in database
Track 10 not present in database
Track 11 not present in database
Track 12 not present in database
Track 13 not present in database

None of the tracks are present in the AccurateRip database

End of status report

==== Log checksum 0C7049ACA39E9ED4ECE9BCA72F1FECA6CF3EB43270FE53F3D44B3C7CB3DDA475 ====

REM GENRE “NY Hardcore”
REM DATE 1992
REM DISCID A00D900D
REM COMMENT “ExactAudioCopy v1.0b3”
PERFORMER “Biohazard ”
TITLE “Urban Discipline [Japan, RRCY-13029]”
FILE “Biohazard – Urban Discipline [Japan, RRCY-13029].flac” WAVE
TRACK 01 AUDIO
TITLE “Chamber Spins Three”
PERFORMER “Biohazard ”
INDEX 01 00:00:00
TRACK 02 AUDIO
TITLE “Punishment”
PERFORMER “Biohazard ”
INDEX 01 03:42:02
TRACK 03 AUDIO
TITLE “Shades Of Grey”
PERFORMER “Biohazard ”
INDEX 01 08:27:37
TRACK 04 AUDIO
TITLE “Business”
PERFORMER “Biohazard ”
INDEX 01 11:54:70
TRACK 05 AUDIO
TITLE “Black And White And Red All Over”
PERFORMER “Biohazard ”
INDEX 01 16:00:15
TRACK 06 AUDIO
TITLE “Man With A Promise”
PERFORMER “Biohazard ”
INDEX 01 20:09:62
TRACK 07 AUDIO
TITLE “Disease”
PERFORMER “Biohazard ”
INDEX 01 23:30:27
TRACK 08 AUDIO
TITLE “Urban Discipline”
PERFORMER “Biohazard ”
INDEX 01 27:31:60
TRACK 09 AUDIO
TITLE “Loss”
PERFORMER “Biohazard ”
INDEX 01 33:09:17
TRACK 10 AUDIO
TITLE “Wrong Side Of The Tracks”
PERFORMER “Biohazard ”
INDEX 01 38:30:50
TRACK 11 AUDIO
TITLE “Mistaken Identity”
PERFORMER “Biohazard ”
INDEX 01 42:07:37
TRACK 12 AUDIO
TITLE “We’re Only Gonna Die (From Our Own Arrogance)”
PERFORMER “Biohazard ”
INDEX 01 46:42:62
TRACK 13 AUDIO
TITLE “Tears Of Blood”
PERFORMER “Biohazard ”
INDEX 01 49:00:52


Leave a Reply

Your email address will not be published. Required fields are marked *

This site uses Akismet to reduce spam. Learn how your comment data is processed.