Biohazard – Urban Discipline (Limited Edition)




Artist: Biohazard
Year: 1993
Genre: Hardcore
Notes: Discogs
Add. Notes: Limited Edition
Cover incl.: Yes
Encoder: FLAC
Bitrate: ~1000 kBit/s (44.1 kHz/16 Bit/s)
Log & Cue incl.: Yes
Size: 536,5 MB
Password: “slam” (without ” “)


All Downloads/Hosters are compatible

Download 1
Turbobit.net
Rapidgator.net
UploadEver.com
KatFile.com
UsersDrive.com
Download 2
Turbobit.net
Rapidgator.net
UploadEver.com
KatFile.com
UsersDrive.com
Download 3
Turbobit.net
Rapidgator.net
UploadEver.com
KatFile.com
UsersDrive.com

Tracklist:

1 - Chamber Spins Three - 3:41
2 - Punishment - 4:46
3 - Shades Of Grey - 3:27
4 - Business - 4:06
5 - Black And White And Red All Over - 4:09
6 - Man With A Promise - 3:21
7 - Disease - 4:01
8 - Urban Discipline - 5:38
9 - Loss - 5:21
10 - Wrong Side Of The Tracks - 3:37
11 - Mistaken Identity - 4:34
12 - We're Only Gonna Die (From Our Own Arrogance) - 
2:19
13 - Tears Of Blood - 4:53
14 - Hold My Own - 2:52
15 - Shades Of Grey (Live) - 4:13
16 - Punishment (Live) - 5:14

EAC-Log, CUE-Sheed & NFO:

Click to open spoiler
Exact Audio Copy V1.0 beta 3 from 29. August 2011

EAC extraction logfile from 30. May 2014, 19:49

Biohazard / Urban Discipline [Ltd.Ed., Roadrunner Rec. RR 9002-2]

Used drive : Optiarc DVD RW AD-7203S Adapter: 4 ID: 0

Read mode : Secure
Utilize accurate stream : Yes
Defeat audio cache : Yes
Make use of C2 pointers : No

Read offset correction : 48
Overread into Lead-In and Lead-Out : No
Fill up missing offset samples with silence : Yes
Delete leading and trailing silent blocks : No
Null samples used in CRC calculations : Yes
Used interface : Native Win32 interface for Win NT & 2000

Used output format : Internal WAV Routines
Sample format : 44.100 Hz; 16 Bit; Stereo

TOC of the extracted CD

Track | Start | Length | Start sector | End sector
———————————————————
1 | 0:00.00 | 3:41.55 | 0 | 16629
2 | 3:41.55 | 4:45.43 | 16630 | 38047
3 | 8:27.23 | 3:27.27 | 38048 | 53599
4 | 11:54.50 | 4:05.25 | 53600 | 71999
5 | 16:00.00 | 4:09.45 | 72000 | 90719
6 | 20:09.45 | 3:20.43 | 90720 | 105762
7 | 23:30.13 | 4:01.12 | 105763 | 123849
8 | 27:31.25 | 5:37.60 | 123850 | 149184
9 | 33:09.10 | 5:21.13 | 149185 | 173272
10 | 38:30.23 | 3:36.72 | 173273 | 189544
11 | 42:07.20 | 4:34.15 | 189545 | 210109
12 | 46:41.35 | 2:19.05 | 210110 | 220539
13 | 49:00.40 | 4:53.25 | 220540 | 242539
14 | 53:53.65 | 2:51.60 | 242540 | 255424
15 | 56:45.50 | 4:13.00 | 255425 | 274399
16 | 60:58.50 | 5:14.50 | 274400 | 297999

Range status and errors

Selected range

Filename C:\spv-av\BIOHAZARD\[1993] [CD] Urban Discipline [Ltd.Ed., Roadrunner Rec. RR 9002-2]\Biohazard – Urban Discipline [Ltd.Ed., Roadrunner Rec. RR 9002-2].wav

Peak level 97.8 %
Extraction speed 4.3 X
Range quality 100.0 %
Test CRC 7261F184
Copy CRC 7261F184
Copy OK

No errors occurred

AccurateRip summary

Track 1 accurately ripped (confidence 7) [606BB77B] (AR v2)
Track 2 accurately ripped (confidence 7) [1E663B8B] (AR v2)
Track 3 accurately ripped (confidence 7) [9038303A] (AR v2)
Track 4 accurately ripped (confidence 7) [D844033D] (AR v2)
Track 5 accurately ripped (confidence 7) [162D09C8] (AR v2)
Track 6 accurately ripped (confidence 7) [CDEC0431] (AR v2)
Track 7 accurately ripped (confidence 7) [0BA29249] (AR v2)
Track 8 accurately ripped (confidence 7) [352341B1] (AR v2)
Track 9 accurately ripped (confidence 7) [3D729D0C] (AR v2)
Track 10 accurately ripped (confidence 7) [C3D21B50] (AR v2)
Track 11 accurately ripped (confidence 7) [32F33795] (AR v2)
Track 12 accurately ripped (confidence 7) [72E7E832] (AR v2)
Track 13 accurately ripped (confidence 7) [F8283A6B] (AR v2)
Track 14 accurately ripped (confidence 7) [D57E6842] (AR v2)
Track 15 accurately ripped (confidence 7) [0FD77147] (AR v2)
Track 16 accurately ripped (confidence 7) [EA10BE3F] (AR v2)

All tracks accurately ripped

End of status report

==== Log checksum DDFA2CF1CE4D8292DBDF1B1CEA4627B3C6D5A0D7435D08D6C36425DF3D4BEA5A ====

REM GENRE “NY Hardcore”
REM DATE 1993
REM DISCID C80F8510
REM COMMENT “ExactAudioCopy v1.0b3”
PERFORMER “Biohazard”
TITLE “Urban Discipline [Ltd.Ed., Roadrunner Rec. RR 9002-2]”
FILE “Biohazard – Urban Discipline [Ltd.Ed., Roadrunner Rec. RR 9002-2].flac” WAVE
TRACK 01 AUDIO
TITLE “Chamber Spins Three ”
PERFORMER “Biohazard”
INDEX 01 00:00:00
TRACK 02 AUDIO
TITLE “Punishment ”
PERFORMER “Biohazard”
INDEX 01 03:41:55
TRACK 03 AUDIO
TITLE “Shades Of Grey ”
PERFORMER “Biohazard”
INDEX 01 08:27:23
TRACK 04 AUDIO
TITLE “Business”
PERFORMER “Biohazard”
INDEX 01 11:54:50
TRACK 05 AUDIO
TITLE “Black And White And Red All Over ”
PERFORMER “Biohazard”
INDEX 01 16:00:00
TRACK 06 AUDIO
TITLE “Man With A Promise ”
PERFORMER “Biohazard”
INDEX 01 20:09:45
TRACK 07 AUDIO
TITLE “Disease ”
PERFORMER “Biohazard”
INDEX 01 23:30:13
TRACK 08 AUDIO
TITLE “Urban Discipline ”
PERFORMER “Biohazard”
INDEX 01 27:31:25
TRACK 09 AUDIO
TITLE “Loss”
PERFORMER “Biohazard”
INDEX 01 33:09:10
TRACK 10 AUDIO
TITLE “Wrong Side Of The Tracks ”
PERFORMER “Biohazard”
INDEX 01 38:30:23
TRACK 11 AUDIO
TITLE “Mistaken Identity ”
PERFORMER “Biohazard”
INDEX 01 42:07:20
TRACK 12 AUDIO
TITLE “We’re Only Gonna Die (From Our Own Arrogance) ”
PERFORMER “Biohazard”
INDEX 01 46:41:35
TRACK 13 AUDIO
TITLE “Tears Of Blood ”
PERFORMER “Biohazard”
INDEX 01 49:00:40
TRACK 14 AUDIO
TITLE “Hold My Own ”
PERFORMER “Biohazard”
INDEX 01 53:53:65
TRACK 15 AUDIO
TITLE “Shades Of Grey (Live)”
PERFORMER “Biohazard”
INDEX 01 56:45:50
TRACK 16 AUDIO
TITLE “Punishment (Live) ”
PERFORMER “Biohazard”
INDEX 01 60:58:50

Leave a Reply

Your email address will not be published. Required fields are marked *

This site uses Akismet to reduce spam. Learn how your comment data is processed.