Biohazard – Urban Discipline (Japanese Edition)




Artist: Biohazard
Year: 1992/1993
Genre: Metal
Notes: Discogs
Add. Notes: Japanese Edition
Cover incl.: Yes
Encoder: FLAC
Bitrate: ~900 kBit/s (44.1 kHz/16 Bit/s)
Log & Cue incl.: Yes
Size: 481,31 MB
Password: “slam” (without ” “)


All Downloads/Hosters are compatible

Download 1
Turbobit.net
Rapidgator.net
UploadEver.com
KatFile.com
UsersDrive.com
Download 2
Turbobit.net
Rapidgator.net
UploadEver.com
KatFile.com
UsersDrive.com
Download 3
Turbobit.net
Rapidgator.net
UploadEver.com
KatFile.com
UsersDrive.com

Tracklist:

1 - Chamber Spins Three - 3:42
2 - Punishment - 4:45
3 - Shades Of Grey - 3:27
4 - Business - 4:05
5 - Black And White And Red All Over - 4:09
6 - Man With A Promise - 3:20
7 - Disease - 4:01
8 - Urban Discipline - 5:37
9 - Loss - 5:21
10 - Wrong Side Of The Tracks - 3:36
11 - Mistaken Identity - 4:35
12 - We're Only Gonna Die (From Our Own Arrogance) - 
2:17
13 - Tears Of Blood - 8:52

EAC-Log, CUE-Sheed & NFO:

Click to open spoiler
Exact Audio Copy V1.0 beta 3 from 29. August 2011

EAC extraction logfile from 17. March 2013, 20:18

Biohazard / Urban Discipline [1993 Reissue, Japan, APCY-8117]

Used drive : TSSTcorpCDDVDW TS-L633J Adapter: 0 ID: 1

Read mode : Secure
Utilize accurate stream : Yes
Defeat audio cache : Yes
Make use of C2 pointers : No

Read offset correction : 6
Overread into Lead-In and Lead-Out : No
Fill up missing offset samples with silence : Yes
Delete leading and trailing silent blocks : No
Null samples used in CRC calculations : Yes
Used interface : Native Win32 interface for Win NT & 2000

Used output format : Internal WAV Routines
Sample format : 44.100 Hz; 16 Bit; Stereo

TOC of the extracted CD

Track | Start | Length | Start sector | End sector
———————————————————
1 | 0:00.37 | 3:42.03 | 37 | 16689
2 | 3:42.40 | 4:45.35 | 16690 | 38099
3 | 8:28.00 | 3:27.32 | 38100 | 53656
4 | 11:55.32 | 4:05.20 | 53657 | 72051
5 | 16:00.52 | 4:09.48 | 72052 | 90774
6 | 20:10.25 | 3:20.40 | 90775 | 105814
7 | 23:30.65 | 4:01.32 | 105815 | 123921
8 | 27:32.22 | 5:37.33 | 123922 | 149229
9 | 33:09.55 | 5:21.32 | 149230 | 173336
10 | 38:31.12 | 3:36.63 | 173337 | 189599
11 | 42:08.00 | 4:35.25 | 189600 | 210249
12 | 46:43.25 | 2:17.65 | 210250 | 220589
13 | 49:01.15 | 8:52.12 | 220590 | 260501

Range status and errors

Selected range

Filename D:\spv-av\BIOHAZARD\[1992] [CD] Urban Discipline [1993 Reissue, Japan, APCY-8117]\Biohazard – Urban Discipline [1993 Reissue, Japan, APCY-8117].wav

Peak level 100.0 %
Extraction speed 2.8 X
Range quality 99.9 %
Test CRC 1912ED98
Copy CRC 1912ED98
Copy OK

No errors occurred

AccurateRip summary

Track 1 not present in database
Track 2 accurately ripped (confidence 1) [8AFD3FDF] (AR v1)
Track 3 accurately ripped (confidence 1) [78B45B8C] (AR v1)
Track 4 not present in database
Track 5 accurately ripped (confidence 1) [882487D8] (AR v1)
Track 6 not present in database
Track 7 not present in database
Track 8 accurately ripped (confidence 1) [A5B58245] (AR v1)
Track 9 not present in database
Track 10 accurately ripped (confidence 1) [1FA7AB03] (AR v1)
Track 11 not present in database
Track 12 accurately ripped (confidence 1) [361A88CA] (AR v1)
Track 13 not present in database

6 трек(и) скопированы точно
7 трек(и) не содержатся в базе AccurateRip

Some tracks could not be verified as accurate

End of status report

REM GENRE “NY Hardcore”
REM DATE 1992
REM DISCID 960D910D
REM COMMENT “ExactAudioCopy v1.0b3”
PERFORMER “Biohazard ”
TITLE “Urban Discipline [1993 Reissue, Japan, APCY-8117]”
FILE “Biohazard – Urban Discipline [1993 Reissue, Japan, APCY-8117].wav” WAVE
TRACK 01 AUDIO
TITLE “Chamber Spins Three”
PERFORMER “Biohazard ”
INDEX 00 00:00:00
INDEX 01 00:00:37
TRACK 02 AUDIO
TITLE “Punishment”
PERFORMER “Biohazard ”
INDEX 01 03:42:40
TRACK 03 AUDIO
TITLE “Shades Of Grey”
PERFORMER “Biohazard ”
INDEX 01 08:28:00
TRACK 04 AUDIO
TITLE “Business”
PERFORMER “Biohazard ”
INDEX 01 11:55:32
TRACK 05 AUDIO
TITLE “Black And White And Red All Over”
PERFORMER “Biohazard ”
INDEX 01 16:00:52
TRACK 06 AUDIO
TITLE “Man With A Promise”
PERFORMER “Biohazard ”
INDEX 01 20:10:25
TRACK 07 AUDIO
TITLE “Disease”
PERFORMER “Biohazard ”
INDEX 01 23:30:65
TRACK 08 AUDIO
TITLE “Urban Discipline”
PERFORMER “Biohazard ”
INDEX 01 27:32:22
TRACK 09 AUDIO
TITLE “Loss”
PERFORMER “Biohazard ”
INDEX 01 33:09:55
TRACK 10 AUDIO
TITLE “Wrong Side Of The Tracks”
PERFORMER “Biohazard ”
INDEX 01 38:31:12
TRACK 11 AUDIO
TITLE “Mistaken Identity”
PERFORMER “Biohazard ”
INDEX 01 42:08:00
TRACK 12 AUDIO
TITLE “We’re Only Gonna Die (From Our Own Arrogance)”
PERFORMER “Biohazard ”
INDEX 01 46:43:25
TRACK 13 AUDIO
TITLE “Tears Of Blood”
PERFORMER “Biohazard ”
INDEX 01 49:01:15

Leave a Reply

Your email address will not be published. Required fields are marked *

This site uses Akismet to reduce spam. Learn how your comment data is processed.